Welcome Guest ( Log In | Register )

> Releases Upload / Добавление релизов

Добавить релиз тут / Click here to add release
Рекомендованные обменники / Recommended file shares

> Lord Mantis - Universal Death Church (2019), Blackened Sludge
post Nov 10 2019, 20:18:56
Post #1

Правь статус, ####!111
**************
Group: Металариец
Posts: 19,524
Releases: 13212
From: Г.Харьков
On Forums: 7 years 6 months
Thanks: 227854 time(s)
Unknown


(IMG:http://metalarea.org/images/audiocovers/2019_Nov/acov_tid330143_thumb.jpg)

*Artist: Lord Mantis
*Album: Universal Death Church
*Year: 2019
*Genre: Blackened Sludge
*Country: United States (IMG:http://metalarea.org/forum/style_images/flags/United%20States.png)
*Format: mp3@CBR320kbps
*Size: 104MB

Tracklist:
1. Santa Muerte 02:35
2. God's Animal 05:49
3. Qliphotic Alpha 07:10
4. Consciousness.exe 03:37
5. Low Entropy Narcosis 03:20
6. Damocles Falls 04:53
7. Fleshworld 08:12
8. Hole 08:46
******************************
Total playing time: 44:22





Extended info
Charlie Fell Vocals, Bass
Andrew Markuszewski Guitars, Vocals
Ken Sorceron Guitars, Vocals
Bryce Butler Drums


Technical info
(IMG:http://metalarea.org/images/spectrogram/2019_Nov/5f45471edd4981e17ef1e5040e0c3a46.png)
Input File: 2 - God's Animal - Lord Mantis.mp3
Channels : 2
Sample Rate : 44100
Precision : 16-bit
Duration : 00:05:49.54 = 15414714 samples = 26215.5 CDDA sectors
File Size : 14.3M
Bit Rate : 326k
Sample Encoding: MPEG audio (layer I, II or III)
Comments :
Title=God's Animal
Artist=Lord Mantis
Album=Universal Death Church
Tracknumber=2/8
Year=2019
Genre=Metal
Discnumber=1/1



Register


Go to the top of the page
  Insert nick Quick quote
+Quote Post
 
Start new topic
Replies (1 - 1)
post Nov 11 2019, 03:52:17
Post #2

Правь статус, ####!111
**************
Group: Металариец
Posts: 19,524
Releases: 13212
From: Г.Харьков
On Forums: 7 years 6 months
Thanks: 227854 time(s)
Unknown


Cloud Mail 320
Register


Go to the top of the page
  Insert nick Quick quote
+Quote Post

Reply to this topicStart new topic
1 User(s) are reading this topic (1 Guests and 0 Anonymous Users)
0 Members:

 



- Lo-Fi Version Support form
Copyrights and abuse reports form
Time is now: 18th November 2019 - 15:24:31