Welcome Guest ( Log In | Register )

> Releases Upload / Добавление релизов

Добавить релиз тут / Click here to add release
Рекомендованные обменники / Recommended file shares

> Sinister Threat - Self (2019), Melodic Death Metal
post Nov 10 2019, 20:54:35
Post #1

Правь статус, ####!111
**************
Group: Металариец
Posts: 19,524
Releases: 13212
From: Г.Харьков
On Forums: 7 years 6 months
Thanks: 227855 time(s)
Unknown


(IMG:http://metalarea.org/images/audiocovers/2019_Nov/acov_tid330144_thumb.jpg)

*Artist: Sinister Threat
*Album: Self
*Year: 2019
*Genre: Melodic Death Metal
*Country: United States (IMG:http://metalarea.org/forum/style_images/flags/United%20States.png)
*Format: mp3@CBR320kbps
*Size: 82MB

Tracklist:
1. Of Rage and Hate 05:30
2. Moon 03:18
3. Under the Devil's Wing 04:01
4. Self 06:27
5. Lucid Madness 04:25
6. Hell's Legend 03:14
7. Otherside 03:31
8. To Know What Cannot Be Known 04:47
******************************
Total playing time: 35:13




Extended info
Альбом записан в 2017 году
John Hollandsworth Guitars, Keyboards
David Brandt Guitars, Vocals, Keyboards



Technical info
(IMG:http://metalarea.org/images/spectrogram/2019_Nov/d4aaf3f80c37347fd89be66e921b48d0.png)
Input File: 03 Under The Devil\'s Wing.mp3
Channels : 2
Sample Rate : 44100
Precision : 16-bit
Duration : 00:04:01.31 = 10641595 samples = 18098 CDDA sectors
File Size : 9.79M
Bit Rate : 325k
Sample Encoding: MPEG audio (layer I, II or III)
Comments :
Title=Under The Devil's Wing
Artist=Sinister Threat
Album=Self
Tracknumber=3
Year=2019



Register


Go to the top of the page
  Insert nick Quick quote
+Quote Post
 
Start new topic
Replies (1 - 5)
post Nov 12 2019, 12:34:45
Post #2

MDM-Thrash Metal
**************
Group: Металариец
Posts: 9,072
Releases: 740
From: Одесса
On Forums: 12 years 3 months
Thanks: 19797 time(s)
Ukraine


Очередной клон Children Of Bodom.
Думаю, что лет 20 назад сей опус вызвал бы массу восторга и интереса.
Go to the top of the page
  Insert nick Quick quote
+Quote Post
post Nov 12 2019, 12:45:49
Post #3

Правь статус, ####!111
**************
Group: Металариец
Posts: 44,081
Releases: 674
On Forums: 10 years 5 months
Thanks: 35358 time(s)
Russian Federation


ЦИТАТА(Andrew @ Nov 12 2019, 15:34:45) *
Очередной клон Children Of Bodom.
Думаю, что лет 20 назад сей опус вызвал бы массу восторга и интереса.


А что, их прям много было? На моей памяти только один раз одна американская группа сделала неплохой клон Хэйтбридера лет 6 так назад.
Go to the top of the page
  Insert nick Quick quote
+Quote Post
post Nov 12 2019, 18:07:14
Post #4

Два Литра
**
Group: Завсегдатай
Posts: 139
Releases: 0
On Forums: 11 years 10 months
Thanks: 14 time(s)
Russian Federation


Ну не знаю, где вы тут COB увидели... А я услышал отголоски Crimson Midwinter. В любом случае, классно.
Go to the top of the page
  Insert nick Quick quote
+Quote Post
post Nov 13 2019, 17:13:12
Post #5

Правь статус, ####!111
**************
Group: Металариец
Posts: 2,718
Releases: 8
From: Dnipro
On Forums: 11 years 4 months
Thanks: 852 time(s)
Ukraine


Что то ни каким боком на Children Of Bodom не похоже (IMG:style_emoticons/default/13.gif)
Go to the top of the page
  Insert nick Quick quote
+Quote Post
post Nov 16 2019, 17:15:53
Post #6

Перевозчик
**************
Group: Металариец
Posts: 3,081
Releases: 0
On Forums: 11 years 4 months
Thanks: 672 time(s)
Russian Federation


По музыке это ни разу не мдм. Да рычат, но этого не достаточно.
Go to the top of the page
  Insert nick Quick quote
+Quote Post

Reply to this topicStart new topic
1 User(s) are reading this topic (1 Guests and 0 Anonymous Users)
0 Members:

 



- Lo-Fi Version Support form
Copyrights and abuse reports form
Time is now: 18th November 2019 - 15:37:21