Welcome Guest ( Log In | Register )

> Releases Upload / Добавление релизов

Добавить релиз тут / Click here to add release
Рекомендованные обменники / Recommended file shares

 
Reply to this topicStart new topic
> Hideous Monarch - The God's Extinction [ep] (2019), Death Metal
post Nov 10 2019, 21:15:32
Post #1

Правь статус, ####!111
**************
Group: Металариец
Posts: 19,524
Releases: 13212
From: Г.Харьков
On Forums: 7 years 6 months
Thanks: 227846 time(s)
Unknown


(IMG:http://metalarea.org/images/audiocovers/2019_Nov/acov_tid330146_thumb.jpg)

*Artist: Hideous Monarch
*Album: The God's Extinction [ep]
*Year: 2019
*Genre: Death Metal
*Country: Brazil (IMG:http://metalarea.org/forum/style_images/flags/Brazil.png)
*Format: mp3@CBR320kbps
*Size: 50MB

Tracklist:
1. Cult of Self Flagellation 05:36
2. Heretic 04:39
3. Hatred Embryo 04:36
4. Divine Execution 03:42
5. ...and Immortals Shall Rise (Rebaelliun cover) 02:46
******************************
Total playing time: 21:19




Extended info
Julian Acosta Bass
Iuri Ravel Drums
Ivan Lopes Guitars
Stefan Santos Guitars
Claudio Cardoso Vocals


Technical info
(IMG:http://metalarea.org/images/spectrogram/2019_Nov/a06f91078940c765605eaa68cbadaa8a.png)
Input File: 03 - Hatred Embryo.mp3
Channels : 2
Sample Rate : 44100
Precision : 16-bit
Duration : 00:04:36.47 = 12192283 samples = 20735.2 CDDA sectors
File Size : 11.2M
Bit Rate : 324k
Sample Encoding: MPEG audio (layer I, II or III)
Comments :
Title=Hatred Embryo
Artist=Hideous Monarch
Album=The God's Extinction
Tracknumber=3
Year=2019-11-08
Discnumber=1



Register


Go to the top of the page
  Insert nick Quick quote
+Quote Post

Reply to this topicStart new topic
1 User(s) are reading this topic (1 Guests and 0 Anonymous Users)
0 Members:

 



- Lo-Fi Version Support form
Copyrights and abuse reports form
Time is now: 18th November 2019 - 14:15:44