Welcome Guest ( Log In | Register )

> Releases Upload / Добавление релизов

Добавить релиз тут / Click here to add release
Рекомендованные обменники / Recommended file shares

 
Reply to this topicStart new topic
> Nachthafen - Se Kuolee Mukanasi [ep] (2019), Blackened Death Metal
post Nov 10 2019, 22:09:22
Post #1

MDM-Thrash Metal
**************
Group: Металариец
Posts: 9,072
Releases: 740
From: Одесса
On Forums: 12 years 3 months
Thanks: 19797 time(s)
Ukraine


(IMG:http://metalarea.org/images/audiocovers/2019_Nov/acov_tid330149_thumb.jpg)

*Artist: Nachthafen
*Album: Se Kuolee Mukanasi [ep]
*Year: 2019
*Genre: Blackened Death Metal
*Country: Finland (IMG:http://metalarea.org/forum/style_images/flags/Finland.png)
*Format: mp3@CBR320kbps
*Size: 47MB

Tracklist:
1. Pimeyteen katoava 04:17
2. Kunnes yö ei ole enää vihollisesi 04:32
3. Näkin metsästäjät 04:02
4. Surun varjot 02:57
5. Yön satama 04:42
******************************
Total playing time: 20:30


(IMG:http://metalarea.org/images/youtube.png)

Technical info
(IMG:http://metalarea.org/images/spectrogram/2019_Nov/0d14503ed7f58f55b0f9aac63b869930.png)
Input File: Nachthafen - Se Kuolee Mukanasi - 02 Kunnes Yö Ei Ole Enää Vihollisesi.mp3
Channels : 2
Sample Rate : 44100
Precision : 16-bit
Duration : 00:04:32.34 = 12010238 samples = 20425.6 CDDA sectors
File Size : 11.0M
Bit Rate : 322k
Sample Encoding: MPEG audio (layer I, II or III)
Comments :
Title=Kunnes Yö Ei Ole Enää Vihollisesi
Artist=Nachthafen
Album=Se Kuolee Mukanasi
Tracknumber=2
Year=2019



Register


Go to the top of the page
  Insert nick Quick quote
+Quote Post

Reply to this topicStart new topic
1 User(s) are reading this topic (1 Guests and 0 Anonymous Users)
0 Members:

 



- Lo-Fi Version Support form
Copyrights and abuse reports form
Time is now: 18th November 2019 - 14:37:35