Welcome Guest ( Log In | Register )

> Releases Upload / Добавление релизов

Добавить релиз тут / Click here to add release
Рекомендованные обменники / Recommended file shares

 
Reply to this topicStart new topic
> Witchspëll - Demons [ep] (2019), Heavy/Speed Metal
post Nov 10 2019, 22:14:43
Post #1

Правь статус, ####!111
**************
Group: Металариец
Posts: 19,546
Releases: 13223
From: Г.Харьков
On Forums: 7 years 6 months
Thanks: 228099 time(s)
Unknown


(IMG:http://metalarea.org/images/audiocovers/2019_Nov/acov_tid330151_thumb.jpg)

*Artist: Witchspëll
*Album: Demons [ep]
*Year: 2019
*Genre: Heavy/Speed Metal
*Country: Mexico (IMG:http://metalarea.org/forum/style_images/flags/Mexico.png)
*Format: mp3@CBR320kbps
*Size: 54MB

Tracklist:
1. Demons
2. Downtown Warriors
3. Mistress Lilith
4. Métal Hurlant
5. King Ghidorah
******************************
Total playing time: 23:32




Extended info
Adrián Carbajal – Vocals, Guitars
Kevin Chavez - Guitars
Harold Rentería - Bass
Daniel Luna – Drums


Technical info
(IMG:http://metalarea.org/images/spectrogram/2019_Nov/6b2b207f91e2a8bef26fd831f1bbabba.png)
Input File: 03 - Mistress Lilith.mp3
Channels : 2
Sample Rate : 44100
Precision : 16-bit
Duration : 00:06:10.36 = 16332788 samples = 27776.9 CDDA sectors
File Size : 14.9M
Bit Rate : 323k
Sample Encoding: MPEG audio (layer I, II or III)
Comments :
Title=Mistress Lilith
Artist=Witchspëll
Album=Demons
Tracknumber=3
Year=2019-10-31
Genre=Metal
Discnumber=1



Register


Go to the top of the page
  Insert nick Quick quote
+Quote Post

Reply to this topicStart new topic
1 User(s) are reading this topic (1 Guests and 0 Anonymous Users)
0 Members:

 



- Lo-Fi Version Support form
Copyrights and abuse reports form
Time is now: 20th November 2019 - 09:42:40