Welcome Guest ( Log In | Register )

> Releases Upload / Добавление релизов

Добавить релиз тут / Click here to add release
Рекомендованные обменники / Recommended file shares

> Loathing - Dawn Of Mourning [ep] (2019), Doom/Death Metal
post Nov 10 2019, 22:58:26
Post #1

Правь статус, ####!111
**************
Group: Металариец
Posts: 19,524
Releases: 13212
From: Г.Харьков
On Forums: 7 years 6 months
Thanks: 227853 time(s)
Unknown


(IMG:http://metalarea.org/images/audiocovers/2019_Nov/acov_tid330157_thumb.jpg)

*Artist: Loathing
*Album: Dawn Of Mourning [ep]
*Year: 2019
*Genre: Doom/Death Metal
*Country: Greece (IMG:http://metalarea.org/forum/style_images/flags/Greece.png)
*Format: mp3@CBR320kbps
*Size: 41MB

Tracklist:
1. Bereavement 05:17
2. God Lay Dead In Heaven 05:22
******************************
Total playing time: 10:39




Extended info
CD-Rip+Covers
Marios Batalias Everything
See also: ex-Flesh Martyr


Technical info
(IMG:http://metalarea.org/images/spectrogram/2019_Nov/3170cb5df47b541bbe21cb26ad9eea11.png)
Input File: 02 - God Lay Dead In Heaven.mp3
Channels : 2
Sample Rate : 44100
Precision : 16-bit
Duration : 00:05:24.02 = 14289150 samples = 24301.3 CDDA sectors
File Size : 13.2M
Bit Rate : 327k
Sample Encoding: MPEG audio (layer I, II or III)
Comments :
Title=God Lay Dead In Heaven
Artist=Loathing
Album=Dawn Of Mourning
Tracknumber=2
Year=2019
Genre=Doom Metal



Register


Go to the top of the page
  Insert nick Quick quote
+Quote Post
 
Start new topic
Replies (1 - 1)
post Nov 11 2019, 19:03:21
Post #2

Group: Подсевший
Posts: 42
Releases: 1
On Forums: 4 years 3 months
Thanks: 52 time(s)
Unknown


Хорошая музыка, только маловато будет
Go to the top of the page
  Insert nick Quick quote
+Quote Post

Reply to this topicStart new topic
1 User(s) are reading this topic (1 Guests and 0 Anonymous Users)
0 Members:

 



- Lo-Fi Version Support form
Copyrights and abuse reports form
Time is now: 18th November 2019 - 15:19:03