Welcome Guest ( Log In | Register )

> Releases Upload / Добавление релизов

Добавить релиз тут / Click here to add release
Рекомендованные обменники / Recommended file shares

> Profectum Iri - Flesh Of The Beast, Blood Of The Earth [demo] (2019), Black Metal/Noise (D6)
post Nov 10 2019, 23:01:05
Post #1

Правь статус, ####!111
**************
Group: Металариец
Posts: 3,991
Releases: 1019
From: Brazil
On Forums: 7 years 9 months
Thanks: 37739 time(s)
Brazil


(IMG:https://metalarea.org/images/audiocovers/2019_Nov/acov_tid330158_thumb.jpg)

*Artist: Profectum Iri
*Album: Flesh Of The Beast, Blood Of The Earth [demo]
*Year: 2019
*Genre: Black Metal/Noise
*Country: Netherlands (IMG:https://metalarea.org/forum/style_images/flags/Netherlands.png)
*Format: mp3@VBR275kbps
*Size: 99MB

Tracklist:
1. Ceremony For The Flesh Of The Beast 26:14
2. Ceremony For The Blood Of The Earth 23:38
******************************
Total playing time: 49:52

Extended info
The Throat



Apocalyptic Black Metal soundscapes and obliterating Drone Doom for the fulfilment of the prophecies of the coming end times.

A ceremony in recognition and enticement of the coming end times in two segments, where the first serves as a hymn to the beast of the apocalypse and the second serves as a requiem for a barren and scorched earth drained of its essence of life after the apocalyptic prophecies have been fulfilled.
The second movement of the living structure in its multi-dimensional form; this time comprised of council of four pharmakeic prophets of demise that beheld the prophecy of that which soon will be truth.

Limited to an undisclosed amount of copies. Full-colour inlay.


Tape-rip by Zero


Technical info
(IMG:https://metalarea.org/images/spectrogram/2019_Nov/70742b47c4006007779687a482b335a3.png)
Input File: 01 Ceremony For The Flesh Of The Beast.mp3
Channels : 2
Sample Rate : 44100
Precision : 16-bit
Duration : 00:26:14.19 = 69421823 samples = 118064 CDDA sectors
File Size : 55.3M
Bit Rate : 281k
Sample Encoding: MPEG audio (layer I, II or III)
Comments :
Title=Ceremony For The Flesh Of The Beast
Artist=Profectum Iri
Album=Flesh Of The Beast, Blood Of The Earth
Tracknumber=01/2
Year=2019
Discnumber=1/1



Register


Go to the top of the page
  Insert nick Quick quote
+Quote Post
 
Start new topic
Replies (1 - 1)
post Nov 11 2019, 08:03:09
Post #2

Маньяк
**********
Group: Металариец
Posts: 1,047
Releases: 14
On Forums: 11 years 1 month
Thanks: 865 time(s)
Russian Federation



Go to the top of the page
  Insert nick Quick quote
+Quote Post

Reply to this topicStart new topic
1 User(s) are reading this topic (1 Guests and 0 Anonymous Users)
0 Members:

 



- Lo-Fi Version Support form
Copyrights and abuse reports form
Time is now: 18th November 2019 - 15:32:13