Welcome Guest ( Log In | Register )

> Releases Upload / Добавление релизов

Добавить релиз тут / Click here to add release
Рекомендованные обменники / Recommended file shares

 
Reply to this topicStart new topic
> Profectum Iri - Peccantem Me Quotidie, Et Non Poenitentem, Timor Mortis Conturbat Me [demo] (2019), Black Metal/Noise (D6)
post Nov 10 2019, 23:20:22
Post #1

Правь статус, ####!111
**************
Group: Металариец
Posts: 3,991
Releases: 1019
From: Brazil
On Forums: 7 years 9 months
Thanks: 37739 time(s)
Brazil


(IMG:https://metalarea.org/images/audiocovers/2019_Nov/acov_tid330159_thumb.jpg)

*Artist: Profectum Iri
*Album: Peccantem Me Quotidie, Et Non Poenitentem, Timor Mortis Conturbat Me [demo]
*Year: 2019
*Genre: Black Metal/Noise
*Country: Netherlands (IMG:https://metalarea.org/forum/style_images/flags/Netherlands.png)
*Format: mp3@VBR251kbps
*Size: 93MB

Tracklist:
1. Quia In Inferno Nulla Est Redemptio, Miserere Mei I 30:09
2. Quia In Inferno Nulla Est Redemptio, Miserere Mei II 20:58
******************************
Total playing time: 51:07

Extended info
The Throat

Cacophonous Black Metal soundscapes of the most horrid kind; like a transistion from life towards the most despicable afterlife imaginable.

A sermon in two parts documented during a private ceremony solemnized during the transition from day into night into day.
A doctrine of loathsome spells in unmitigated respect for death.
Received, channeled and delivered by the living structure known as Profectum Iri for the first time taking the form of a seven-headed abomination, ushering in an age of growth and advancement… akin to a freshly manifested cancer in an already dying body.

Limited to an undisclosed amount of copies.

Tape-rip by Zero


Technical info
(IMG:https://metalarea.org/images/spectrogram/2019_Nov/a7d847c44fa9a53178ebd393d5863706.png)
Input File: 02 Quia In Inferno Nulla Est Redemptio, Miserere Mei II.mp3
Channels : 2
Sample Rate : 44100
Precision : 16-bit
Duration : 00:20:58.95 = 55519475 samples = 94420.9 CDDA sectors
File Size : 39.5M
Bit Rate : 251k
Sample Encoding: MPEG audio (layer I, II or III)
Comments :
Title= Quia In Inferno Nulla Est Redemptio, Miserere Mei II
Artist=Profectum Iri
Album=Peccantem Me Quotidie, Et Non Poenitentem, Timor Mortis Conturbat Me
Tracknumber=02/2
Year=2019
Discnumber=1/1



Register


Go to the top of the page
  Insert nick Quick quote
+Quote Post

Reply to this topicStart new topic
1 User(s) are reading this topic (1 Guests and 0 Anonymous Users)
0 Members:

 



- Lo-Fi Version Support form
Copyrights and abuse reports form
Time is now: 18th November 2019 - 15:45:12