Welcome Guest ( Log In | Register )

> Releases Upload / Добавление релизов

Добавить релиз тут / Click here to add release
Рекомендованные обменники / Recommended file shares

> Vestibulum Vacuüi - Boetekleed [demo] (2017), Raw Black Metal/Ambient
post Nov 10 2019, 23:22:10
Post #1

Правь статус, ####!111
**************
Group: Металариец
Posts: 3,995
Releases: 1019
From: Brazil
On Forums: 7 years 9 months
Thanks: 37798 time(s)
Brazil


(IMG:https://metalarea.org/images/audiocovers/2019_Nov/acov_tid330160_thumb.jpg)

*Artist: Vestibulum Vacuüi
*Album: Boetekleed [demo]
*Year: 2017
*Genre: Raw Black Metal/Ambient
*Country: Netherlands (IMG:https://metalarea.org/forum/style_images/flags/Netherlands.png)
*Format: mp3@VBR250kbps
*Size: 28MB

Tracklist:
1. Het Boetekleed der benevolentie 02:38
2. Niets doet het verbleken 05:46
3. Naargeestige welwillendheid 00:40
4. Een kwelling voor de stervelingenziel 06:08
******************************
Total playing time: 15:12

Extended info
The Throat

Tape-rip by Zero


Technical info
(IMG:https://metalarea.org/images/spectrogram/2019_Nov/7f46af8838920e212ed768a5087acd56.png)
Input File: 03 Naargeestige Welwillendheid.mp3
Channels : 2
Sample Rate : 44100
Precision : 16-bit
Duration : 00:00:38.64 = 1703804 samples = 2897.63 CDDA sectors
File Size : 1.17M
Bit Rate : 243k
Sample Encoding: MPEG audio (layer I, II or III)
Comments :
Title=Naargeestige Welwillendheid
Artist=Vestibulum Vacuüi
Album=Boetekleed
Tracknumber=03/4
Year=2017
Discnumber=1/1



Register


Go to the top of the page
  Insert nick Quick quote
+Quote Post
 
Start new topic
Replies (1 - 1)
post Nov 11 2019, 10:50:20
Post #2

my church is black
********
Group: Металариец
Posts: 856
Releases: 1
On Forums: 2 years 5 months
Thanks: 491 time(s)
Cape Verde


Я конечно люблю raw, но когда нойзовый порог превышает 50% это уже перебор. Кроме него по итогу слышны практически одни барабаны.


Thanks:
(1) Evilded,
Go to the top of the page
  Insert nick Quick quote
+Quote Post

Reply to this topicStart new topic
1 User(s) are reading this topic (1 Guests and 0 Anonymous Users)
0 Members:

 



- Lo-Fi Version Support form
Copyrights and abuse reports form
Time is now: 20th November 2019 - 10:25:11