Welcome Guest ( Log In | Register )

> Releases Upload / Добавление релизов

Добавить релиз тут / Click here to add release
Рекомендованные обменники / Recommended file shares

 
Reply to this topicStart new topic
> Vestibulum Vacuüi - Het Niets Onvernomen, Een Verzegeld Lot (2017), Raw Black Metal
post Nov 10 2019, 23:24:07
Post #1

Правь статус, ####!111
**************
Group: Металариец
Posts: 3,991
Releases: 1019
From: Brazil
On Forums: 7 years 9 months
Thanks: 37713 time(s)
Brazil


(IMG:https://metalarea.org/images/audiocovers/2019_Nov/acov_tid330161_thumb.jpg)

*Artist: Vestibulum Vacuüi
*Album: Het Niets Onvernomen, Een Verzegeld Lot
*Year: 2017
*Genre: Raw Black Metal
*Country: Netherlands (IMG:https://metalarea.org/forum/style_images/flags/Netherlands.png)
*Format: mp3@VBR276kbps
*Size: 69MB

Tracklist:
1. Gevurot 00:59
2. Het ontvangen van de hand 06:42
3. Kafkaëske vervoering, de geplukte vrucht en onheil 06:33
4. Vervlogen, om nimmer terug te keren 05:45
5. Het gesponnen web, de klok drijft tot waanzin 07:53
6. Ketens van ruimte en tijd, een schrei uit wanhoop 07:02
******************************
Total playing time: 34:54

Extended info
The Throat

Tape-rip by Zero


Technical info
(IMG:https://metalarea.org/images/spectrogram/2019_Nov/7724e7d14c111c8f89397bcc988209c4.png)
Input File: 01 Gevurot.mp3
Channels : 2
Sample Rate : 44100
Precision : 16-bit
Duration : 00:00:57.42 = 2532090 samples = 4306.28 CDDA sectors
File Size : 1.96M
Bit Rate : 273k
Sample Encoding: MPEG audio (layer I, II or III)
Comments :
Title=Gevurot
Artist=Vestibulum Vacuüi
Album=Het Niets Onvernomen, Een Verzegeld Lot
Tracknumber=01/6
Year=2017
Discnumber=1/1



Register


Go to the top of the page
  Insert nick Quick quote
+Quote Post

Reply to this topicStart new topic
1 User(s) are reading this topic (1 Guests and 0 Anonymous Users)
0 Members:

 



- Lo-Fi Version Support form
Copyrights and abuse reports form
Time is now: 18th November 2019 - 05:11:25