Welcome Guest ( Log In | Register )

> Releases Upload / Добавление релизов

Добавить релиз тут / Click here to add release
Рекомендованные обменники / Recommended file shares

> Cer - Dialectic Enigma [ep] (2019), Atmospheric Black Metal
post Nov 10 2019, 23:35:08
Post #1

Правь статус, ####!111
**************
Group: Металариец
Posts: 3,995
Releases: 1019
From: Brazil
On Forums: 7 years 9 months
Thanks: 37798 time(s)
Brazil


(IMG:https://metalarea.org/images/audiocovers/2019_Nov/acov_tid330162_thumb.jpg)

*Artist: Cer
*Album: Dialectic Enigma [ep]
*Year: 2019
*Genre: Atmospheric Black Metal
*Country: Netherlands (IMG:https://metalarea.org/forum/style_images/flags/Netherlands.png)
*Format: mp3@VBR244kbps
*Size: 39MB

Tracklist:
1. Kolossus - Fragmentation 10:51
2. Cosmos - Integration 10:37
******************************
Total playing time: 21:28

Extended info
The Throat


Interstellar Black Metal/Ambient

This release emphasises two conceivings of man’s role in the cosmos: the first side is insignificance, belittlement, a banishment to oblivion, while the other side represents interconnectedness, integration, belonging. They are never at ease.

Limited to an undisclosed amount of copies.


Tape-rip by Zero


Technical info
(IMG:https://metalarea.org/images/spectrogram/2019_Nov/16450f088c5ae48b1a4d071b265f2eb6.png)
Input File: 02 Cosmos - Integration.mp3
Channels : 2
Sample Rate : 44100
Precision : 16-bit
Duration : 00:10:54.00 = 28841444 samples = 49050.1 CDDA sectors
File Size : 19.5M
Bit Rate : 238k
Sample Encoding: MPEG audio (layer I, II or III)
Comments :
Title=Cosmos - Integration
Artist=Cer
Album=Dialectic Enigma
Tracknumber=02/2
Year=2019
Discnumber=1/1



Register


Go to the top of the page
  Insert nick Quick quote
+Quote Post
 
Start new topic
Replies (1 - 2)
post Nov 11 2019, 08:00:58
Post #2

Маньяк
**********
Group: Металариец
Posts: 1,018
Releases: 373
On Forums: 9 years 1 day
Thanks: 8505 time(s)
Eritrea




Thanks:
Go to the top of the page
  Insert nick Quick quote
+Quote Post
post Nov 11 2019, 10:12:09
Post #3

my church is black
********
Group: Металариец
Posts: 856
Releases: 1
On Forums: 2 years 5 months
Thanks: 491 time(s)
Cape Verde


Второй трек - эмбиент. Норм, но чёто уж чересчур размытый звук.
Go to the top of the page
  Insert nick Quick quote
+Quote Post

Reply to this topicStart new topic
1 User(s) are reading this topic (1 Guests and 0 Anonymous Users)
0 Members:

 



- Lo-Fi Version Support form
Copyrights and abuse reports form
Time is now: 20th November 2019 - 10:50:02