Welcome Guest ( Log In | Register )

> Releases Upload / Добавление релизов

Добавить релиз тут / Click here to add release
Рекомендованные обменники / Recommended file shares

 
Reply to this topicStart new topic
> Widdiful - Demo IV [demo] (2019), Raw Black Metal
post Nov 10 2019, 23:42:39
Post #1

Правь статус, ####!111
**************
Group: Металариец
Posts: 3,991
Releases: 1019
From: Brazil
On Forums: 7 years 9 months
Thanks: 37720 time(s)
Brazil


(IMG:https://metalarea.org/images/audiocovers/2019_Nov/acov_tid330163_thumb.jpg)

*Artist: Widdiful
*Album: Demo IV [demo]
*Year: 2019
*Genre: Raw Black Metal
*Country: United States (IMG:https://metalarea.org/forum/style_images/flags/United%20States.png)
*Format: mp3@VBR273kbps
*Size: 39MB

Tracklist:
1. Untitled 01:21
2. Untitled 05:33
3. Untitled 02:31
4. Untitled 03:13
5. Mor-Bon-Zi Pt. IV 07:22
******************************
Total playing time: 20:00

Extended info
The Throat


Abrasive, Raw Black Metal

After four years of absolute silence another Widdiful demo arises from the rotten and foul soil of the Cleveland, Ohio underground.
A relentless, maniacal storm fueled by pure frustration and anguist.
Five vries of distress accompanied by forlorn instrumentational quota.

Limited to an undisclosed amount of copies.


Tape-rip by Zero


Technical info
(IMG:https://metalarea.org/images/spectrogram/2019_Nov/31107fbb432cb00a995fe5c305f437fa.png)
Input File: 01 Untitled.mp3
Channels : 2
Sample Rate : 44100
Precision : 16-bit
Duration : 00:01:21.16 = 3579244 samples = 6087.15 CDDA sectors
File Size : 3.07M
Bit Rate : 302k
Sample Encoding: MPEG audio (layer I, II or III)
Comments :
Title=Untitled I
Artist=Widdiful
Album=Demo IV
Tracknumber=01/5
Year=2019
Discnumber=1/1



Register


Go to the top of the page
  Insert nick Quick quote
+Quote Post

Reply to this topicStart new topic
1 User(s) are reading this topic (1 Guests and 0 Anonymous Users)
0 Members:

 



- Lo-Fi Version Support form
Copyrights and abuse reports form
Time is now: 18th November 2019 - 05:41:27