Welcome Guest ( Log In | Register )

> Releases Upload / Добавление релизов

Добавить релиз тут / Click here to add release
Рекомендованные обменники / Recommended file shares

> Den Mishaegelyke Wil Van Den Vader Der Leugentael - Den Zedenlozen Weg Der Verdorvenheyd [demo] (2019), Raw Black Metal
post Nov 10 2019, 23:49:20
Post #1

Правь статус, ####!111
**************
Group: Металариец
Posts: 3,995
Releases: 1019
From: Brazil
On Forums: 7 years 9 months
Thanks: 37798 time(s)
Brazil


(IMG:https://metalarea.org/images/audiocovers/2019_Nov/acov_tid330164_thumb.jpg)

*Artist: Den Mishaegelyke Wil Van Den Vader Der Leugentael
*Album: Den Zedenlozen Weg Der Verdorvenheyd [demo]
*Year: 2019
*Genre: Raw Black Metal
*Country: Netherlands (IMG:https://metalarea.org/forum/style_images/flags/Netherlands.png)
*Format: mp3@VBR247kbps
*Size: 32MB

Tracklist:
1. Bezield van den onheyligen geest 02:49
2. Den donkere nagt der duyvelary, gedompeld in de schaduwe des doods 07:40
3. Den brandende fakkel der goddeloosheyd, den byl aen den wortel der onnoozelheyd 06:27
******************************
Total playing time: 16:56

Extended info
The Throat


Den Mishaegelyke Wil Van Den Vader Der Leugentael is a freshly unearthed abomination operating under the banner of The Throat.
Their debut demo “Den zedenlozen weg der verdorvenheyd” is comprised of three hypnotic incantations of disgraceful art memorializing archaic times when the word of the church was law and devils, and the lunatics that worshipped them, traversed the fields freely, leaving the common-folk distraught in fear.
A true theomanic disruption of peace in adoration of all that is sinful.


Tape-rip by Zero


Technical info
(IMG:https://metalarea.org/images/spectrogram/2019_Nov/d40cd85168c981da2f68beb9634b3cc7.png)
Input File: 01 Bezield van Den Onheyligen Geest.mp3
Channels : 2
Sample Rate : 44100
Precision : 16-bit
Duration : 00:02:54.55 = 7697655 samples = 13091.3 CDDA sectors
File Size : 5.43M
Bit Rate : 249k
Sample Encoding: MPEG audio (layer I, II or III)
Comments :
Title=Bezield van Den Onheyligen Geest
Artist=Den Mishaegelyke Wil Van Den Vader Der Leugentael
Album=Den Zedenlozen Weg Der Verdorvenheyd
Tracknumber=01/3
Year=2019
Discnumber=1/1



Register


Go to the top of the page
  Insert nick Quick quote
+Quote Post
 
Start new topic
Replies (1 - 2)
post Nov 11 2019, 12:04:08
Post #2

Маньяк
**********
Group: Металариец
Posts: 1,101
Releases: 37
From: великий город Питер
On Forums: 13 years 11 months
Thanks: 1884 time(s)
Russian Federation


Go to the top of the page
  Insert nick Quick quote
+Quote Post
post Nov 11 2019, 13:14:33
Post #3

my church is black
********
Group: Металариец
Posts: 856
Releases: 1
On Forums: 2 years 5 months
Thanks: 491 time(s)
Cape Verde


ну походу это живьём писали сразу и на диктофон, закинутый в дальний угол. однако звучит
Go to the top of the page
  Insert nick Quick quote
+Quote Post

Reply to this topicStart new topic
1 User(s) are reading this topic (1 Guests and 0 Anonymous Users)
0 Members:

 



- Lo-Fi Version Support form
Copyrights and abuse reports form
Time is now: 20th November 2019 - 11:14:42