Welcome Guest ( Log In | Register )

> Releases Upload / Добавление релизов

Добавить релиз тут / Click here to add release
Рекомендованные обменники / Recommended file shares

 
Reply to this topicStart new topic
> Tropic Of Damned Spirits - Demo I [demo] (2019), Raw Black Metal
post Nov 10 2019, 23:53:29
Post #1

Правь статус, ####!111
**************
Group: Металариец
Posts: 3,995
Releases: 1019
From: Brazil
On Forums: 7 years 9 months
Thanks: 37798 time(s)
Brazil


(IMG:https://metalarea.org/images/audiocovers/2019_Nov/acov_tid330165_thumb.jpg)

*Artist: Tropic Of Damned Spirits
*Album: Demo I [demo]
*Year: 2019
*Genre: Raw Black Metal
*Country: United States (IMG:https://metalarea.org/forum/style_images/flags/United%20States.png)
*Format: mp3@VBR243kbps
*Size: 20MB

Tracklist:
1. Untitled 01:18
2. Untitled 02:57
3. Untitled 03:12
4. Untitled 03:28
******************************
Total playing time: 10:55

Extended info
Harvest of Death

Four tracks of uncompromising and claustrophobic raw black metal!

Recorded May MMXIV, Anno Luciferi.

Tape-rip by Zero


Technical info
(IMG:https://metalarea.org/images/spectrogram/2019_Nov/5131bdf284d7abe818939ef57ab83d74.png)
Input File: 01 Untitled.mp3
Channels : 2
Sample Rate : 44100
Precision : 16-bit
Duration : 00:01:18.94 = 3481342 samples = 5920.65 CDDA sectors
File Size : 2.56M
Bit Rate : 259k
Sample Encoding: MPEG audio (layer I, II or III)
Comments :
Title=Untitled I
Artist=Tropic Of Damned Spirits
Album=Demo I
Tracknumber=1/4
Year=2019
Discnumber=1/1



Register


Go to the top of the page
  Insert nick Quick quote
+Quote Post

Reply to this topicStart new topic
1 User(s) are reading this topic (1 Guests and 0 Anonymous Users)
0 Members:

 



- Lo-Fi Version Support form
Copyrights and abuse reports form
Time is now: 20th November 2019 - 09:42:34