Welcome Guest ( Log In | Register )

> Releases Upload / Добавление релизов

Добавить релиз тут / Click here to add release
Рекомендованные обменники / Recommended file shares

 
Reply to this topicStart new topic
> Tergum Ambulare - Sanguinis Obscurum [demo] (2019), Raw Black Metal
post Nov 10 2019, 23:58:22
Post #1

Правь статус, ####!111
**************
Group: Металариец
Posts: 3,995
Releases: 1019
From: Brazil
On Forums: 7 years 9 months
Thanks: 37798 time(s)
Brazil


(IMG:https://metalarea.org/images/audiocovers/2019_Nov/acov_tid330166_thumb.jpg)

*Artist: Tergum Ambulare
*Album: Sanguinis Obscurum [demo]
*Year: 2019
*Genre: Raw Black Metal
*Country: Bosnia and Herzegovina (IMG:https://metalarea.org/forum/style_images/flags/Bosnia%20and%20Herzegovina.png)
*Format: mp3@VBR236kbps
*Size: 26MB

Tracklist:
1. Infestation of the Howling Shadows 02:03
2. Taint Black Horizon 05:45
3. Departure to the Plains Unknown 05:29
4. Haunted Murals 02:05
******************************
Total playing time: 15:22

Extended info
Black Gangrene Productions


"Sanguinis Obscurum" is the debut demo by enigmatic Black Metal entity Tergum Ambulare. Within four tracks, the band delivers a strikingly dark and ominous sound manifested by dissonant, piercing riffs, a diverse rhythmic section - particularly memorable on slower parts - and an obscure and overtly rabid vocal performance. Sonically oppressive and somber, "Sanguinis Obscurum" carries a negative energy throughout, a hypnotic aura of torment and death.
Black Gangrene is proud to unleash this haunting piece of darkness, a release which shall appeal to any devotee of genuinely sinister Black Metal.


Tape-rip by Zero


Technical info
(IMG:https://metalarea.org/images/spectrogram/2019_Nov/f8960b903aeb28c32a55ebb8480f7ba3.png)
Input File: 01 Infestation Of The Howling Shadows.mp3
Channels : 2
Sample Rate : 44100
Precision : 16-bit
Duration : 00:01:59.95 = 5289971 samples = 8996.55 CDDA sectors
File Size : 3.60M
Bit Rate : 240k
Sample Encoding: MPEG audio (layer I, II or III)
Comments :
Title=Infestation Of The Howling Shadows
Artist=Tergum Ambulare
Album=Sanguinis Obscurum
Tracknumber=1/4
Year=2019
Discnumber=1/1



Register


Go to the top of the page
  Insert nick Quick quote
+Quote Post

Reply to this topicStart new topic
1 User(s) are reading this topic (1 Guests and 0 Anonymous Users)
0 Members:

 



- Lo-Fi Version Support form
Copyrights and abuse reports form
Time is now: 20th November 2019 - 09:43:03