Welcome Guest ( Log In | Register )

> Releases Upload / Добавление релизов

Добавить релиз тут / Click here to add release
Рекомендованные обменники / Recommended file shares

> Sulphuric Night - Forever Cursed (2019), Black Metal
post Nov 11 2019, 00:13:27
Post #1

Правь статус, ####!111
**************
Group: Металариец
Posts: 3,995
Releases: 1019
From: Brazil
On Forums: 7 years 9 months
Thanks: 37798 time(s)
Brazil


(IMG:https://metalarea.org/images/audiocovers/2019_Nov/acov_tid330167_thumb.jpg)

*Artist: Sulphuric Night
*Album: Forever Cursed
*Year: 2019
*Genre: Black Metal
*Country: Bosnia and Herzegovina (IMG:https://metalarea.org/forum/style_images/flags/Bosnia%20and%20Herzegovina.png)
*Format: mp3@CBR320kbps
*Size: 93MB

Tracklist:
1. I 06:42
2. II 08:16
3. III 06:43
4. IV 06:56
5. V 05:40
6. VI 05:15
******************************
Total playing time: 39:32

(IMG:https://metalarea.org/images/youtube.png)


Extended info
Altare Productions.
Released together with Black Gangrene Productions.


"FOREVER CURSED" was written and performed by O., 2015-2019, era mors.
Session bass recorded by A., 2019.
Lyrics for "I" by V., "V" by Sataere.


Technical info
(IMG:https://metalarea.org/images/spectrogram/2019_Nov/b48ab13c972c1b735612bc5fb6cfdc14.png)
Input File: 06 VI.mp3
Channels : 2
Sample Rate : 44100
Precision : 16-bit
Duration : 00:05:15.11 = 13896175 samples = 23633 CDDA sectors
File Size : 12.6M
Bit Rate : 321k
Sample Encoding: MPEG audio (layer I, II or III)
Comments :
Title=VI
Artist=Sulphuric Night
Album=Forever Cursed
Tracknumber=06/6
Year=2019
Discnumber=1/1



Register


Go to the top of the page
  Insert nick Quick quote
+Quote Post
 
Start new topic
Replies (1 - 4)
post Nov 11 2019, 06:35:43
Post #2

my church is black
********
Group: Металариец
Posts: 856
Releases: 1
On Forums: 2 years 5 months
Thanks: 491 time(s)
Cape Verde


(IMG:style_emoticons/default/true_black.gif) годнота. и снова из боснии. так держать


Thanks:
Go to the top of the page
  Insert nick Quick quote
+Quote Post
post Nov 11 2019, 15:52:07
Post #3

Мегаманьяк
***********
Group: Металариец
Posts: 1,819
Releases: 1437
From: Prešov
On Forums: 5 years 7 months
Thanks: 35117 time(s)
Slovakia


(IMG:https://i111.fastpic.ru/big/2019/1111/19/4780b0280b4f9a32f81199f8fde8c819.jpg)

Sulphuric Night - 2019 - Forever Curse
Black Gangrene Productions

Vinyl-rip 320 Kbps + Scans @Yadi.sk
Register




Go to the top of the page
  Insert nick Quick quote
+Quote Post
post Nov 11 2019, 18:44:03
Post #4


**************
Group: Металариец
Posts: 2,120
Releases: 14
From: Казань
On Forums: 10 years 2 months
Thanks: 2801 time(s)
Russian Federation


MGLA мерещится в Стараниях With Hearts Toward None, поэтому массив воспринимается на удивление легко, в тоже время с правильными мыслями, где всякая лажа отсутствует априори, даже в рамках почившей сегодняшней мглы, где легко угадываются все фундаментальные моменты старой, взятые за Основу.
Go to the top of the page
  Insert nick Quick quote
+Quote Post
post Nov 12 2019, 07:12:34
Post #5

кручу наждак
**************
Group: Металариец
Posts: 4,124
Releases: 98
From: Самара
On Forums: 9 years 6 months
Thanks: 3191 time(s)
Russian Federation


Вот и я чую - что-то не то, какая-то mgla-подобная приторность проклевывается из вроде бы недурного блэка.
Go to the top of the page
  Insert nick Quick quote
+Quote Post

Reply to this topicStart new topic
1 User(s) are reading this topic (1 Guests and 0 Anonymous Users)
0 Members:

 



- Lo-Fi Version Support form
Copyrights and abuse reports form
Time is now: 20th November 2019 - 09:52:44