Welcome Guest ( Log In | Register )

 
Reply to this topicStart new topic
> Tyrant - Hatdja (2019), Thrash/Groove Metal
post Nov 11 2019, 04:46:39
Post #1

Правь статус, ####!111
**************
Group: Металариец
Posts: 24,668
Releases: 17474
From: Г.Харьков
On Forums: 8 years 8 months
Thanks: 338312 time(s)
Unknown


(IMG:http://metalarea.org/images/audiocovers/2019_Nov/acov_tid330170_thumb.jpg)

*Artist: Tyrant
*Album: Hatdja
*Year: 2019
*Genre: Thrash/Groove Metal
*Country: Spain (IMG:http://metalarea.org/forum/style_images/flags/Spain.png)
*Format: mp3@CBR320kbps
*Size: 89MB

Tracklist:
1. Tyrant 04:24
2. From the Depths 04:14
3. Hard to Rise 04:36
4. Slaves 04:34
5. Domination March 04:33
6. (Millions of Corpses...) in the Name of No One 05:36
7. Beer's Fan Song 02:12
8. Jackpot! 03:33
9. Abomination 04:33
******************************
Total playing time: 38:15



Extended info
Heketor Lorenzo: Voz
Nico Suárez: Guitarra
Mikel Gómez: Bajo
Danko Guerra: Batería



Technical info
(IMG:http://metalarea.org/images/spectrogram/2019_Nov/622d1ad6c1a654d9c127abbd492d4ca8.png)
Input File: 03 - Hard to Rise.mp3
Channels : 2
Sample Rate : 44100
Precision : 16-bit
Duration : 00:04:36.47 = 12192415 samples = 20735.4 CDDA sectors
File Size : 11.3M
Bit Rate : 327k
Sample Encoding: MPEG audio (layer I, II or III)
Comments :
Title=Hard to Rise
Artist=Tyrant
Album=Hatdja
Tracknumber=3
Year=2019
Genre=Thrash Metal
Discnumber=1



Register


Go to the top of the page
  Insert nick Quick quote
+Quote Post

Reply to this topicStart new topic
1 User(s) are reading this topic (1 Guests and 0 Anonymous Users)
0 Members:

 



- Lo-Fi Version Support form
Copyrights and abuse reports form
Time is now: 25th January 2021 - 01:15:34