Welcome Guest ( Log In | Register )

> Coniferous Myst & Lord Einsamkeit - Lost Passages [split] (2019), Old School Dungeon Synth | Black Metal/Dungeon Synth
post Nov 11 2019, 09:07:24
Post #1

Правь статус, ####!111
**************
Group: Металариец
Posts: 46,767
Releases: 730
On Forums: 11 years 1 month
Thanks: 39408 time(s)
Russian Federation


(IMG:http://metalarea.org/images/audiocovers/2019_Nov/acov_tid330171_thumb.png)

*Artist: Coniferous Myst & Lord Einsamkeit
*Album: Lost Passages [split]
*Year: 2019
*Genre: Old School Dungeon Synth | Black Metal/Dungeon Synth
*Country: United States (IMG:http://metalarea.org/forum/style_images/flags/United%20States.png) | United States (IMG:http://metalarea.org/forum/style_images/flags/United%20States.png)
*Format: mp3@CBR320kbps
*Size: 60MB

Tracklist:
Coniferous Myst:
1. Intro - Old Mountain Bells 02:26
2. A Haunted Winter Forest 02:30
3. A Mountain Chase! 02:38
4. Howling in the Distance... 03:05
5. Resting - A Campfire's Embrace 02:04
6. A Frozen Tumble Down the Summit 04:03
Lord Einsamkeit:
7. The Prophecy Foretells. 03:36
8. Summoning Thyself 02:43
9. I Am Hell On Earth 02:53
******************************
Total playing time: 25:58



Technical info
(IMG:http://metalarea.org/images/spectrogram/2019_Nov/e04ae22fb71fec9078b6e6201e714be9.png)
Input File: Coniferous Myst - Lost Passages - 01 Intro - Old Mountain Bells.mp3
Channels : 2
Sample Rate : 44100
Precision : 16-bit
Duration : 00:02:26.08 = 6442304 samples = 10956.3 CDDA sectors
File Size : 5.94M
Bit Rate : 325k
Sample Encoding: MPEG audio (layer I, II or III)
Comments :
Title=Intro - Old Mountain Bells
Artist=Coniferous Myst
Album=Lost Passages
Tracknumber=1
Year=2019



Register


This post has been edited by Borderline1991: Nov 11 2019, 13:54:50


Thanks:
Go to the top of the page
  Insert nick Quick quote
+Quote Post
 
Start new topic
Replies (1 - 1)
post Nov 11 2019, 14:06:08
Post #2

Правь статус, ####!111
**************
Group: Металариец
Posts: 46,767
Releases: 730
On Forums: 11 years 1 month
Thanks: 39408 time(s)
Russian Federation


Неплохая отрешённость, всё по канонам жанра.
Go to the top of the page
  Insert nick Quick quote
+Quote Post

Reply to this topicStart new topic
1 User(s) are reading this topic (1 Guests and 0 Anonymous Users)
0 Members:

 



- Lo-Fi Version Support form
Copyrights and abuse reports form
Time is now: 9th July 2020 - 12:07:20