Welcome Guest ( Log In | Register )

> Katharos Xiii - Palindrome (2019), Atmospheric Black Metal/Doom Metal/Dark Jazz (D)
post Nov 12 2019, 10:18:33
Post #1

Group: Подсевший
Posts: 37
Releases: 25
On Forums: 6 months 4 weeks
Thanks: 466 time(s)
Unknown


(IMG:http://metalarea.org/images/audiocovers/2019_Nov/acov_tid330217_thumb.jpg)

*Artist: Katharos Xiii
*Album: Palindrome
*Year: 2019
*Genre: Atmospheric Black Metal/Doom Metal/Dark Jazz
*Country: Romania (IMG:http://metalarea.org/forum/style_images/flags/Romania.png)
*Format: mp3@CBR320kbps
*Size: 132MB

Tracklist:
01. Vidma 08:15
02. To a Secret Voyage 11:29
03. Caloian Voices 14:22
04. No Sun Swims Thundered 12:35
05. Xavernah Glory 10:57
******************************
Total playing time: 57:38



Extended info
Katharos XIII's third opus, Palindrome, is made of five long tracks that shifted from the traditional Depressive Black Metal into a more eclectic art form of expression with Dark Doom Metal and Post-Jazz elements, a certain evolution into a more personal unearthly ambiance that represent a new path in the journey that this band embarked more than twelve years ago. The same paranoia and weirdness but with different tools this time.


Technical info
(IMG:http://metalarea.org/images/spectrogram/2019_Nov/7c2f00bd28ce26f0fefc71212ac081f5.png)
Input File: 01. Vidma.mp3
Channels : 2
Sample Rate : 48000
Precision : 16-bit
Duration : 00:08:15.39 = 23778576 samples ~ 37154 CDDA sectors
File Size : 20.1M
Bit Rate : 324k
Sample Encoding: MPEG audio (layer I, II or III)
Comments :
Title=Vidma
Artist=Katharos XIII
Album=Palindrome
Tracknumber=01
Year=2019



Register


Go to the top of the page
  Insert nick Quick quote
+Quote Post
 
Start new topic
Replies (1 - 4)
post Nov 14 2019, 19:28:52
Post #2

Маньяк
**********
Group: Металариец
Posts: 1,322
Releases: 0
From: Russian Federation - St.Petersburg
On Forums: 11 years 3 months
Thanks: 332 time(s)
Russian Federation


(IMG:style_emoticons/default/smile4.gif)
https://www.youtube.com/watch?v=GAgeZzczfrM


Thanks:
Go to the top of the page
  Insert nick Quick quote
+Quote Post
post Nov 14 2019, 19:46:40
Post #3

Group: Подсевший
Posts: 44
Releases: 1
On Forums: 4 years 10 months
Thanks: 54 time(s)
Unknown


Металла не обнаружено. Что-то похожее на The Kilimanjaro Darkjazz Ensemble. Dark Jazz уважаю.
Go to the top of the page
  Insert nick Quick quote
+Quote Post
post Nov 29 2019, 08:20:16
Post #4

Grind the Human Scum
**********
Group: Металариец
Posts: 1,022
Releases: 18
On Forums: 13 years 4 months
Thanks: 971 time(s)
Russian Federation


годная работа, хорошо тут все переплетено/.
Go to the top of the page
  Insert nick Quick quote
+Quote Post
post Mar 12 2020, 10:03:38
Post #5

Правь статус, ####!111
**************
Group: Металариец
Posts: 2,902
Releases: 0
From: MoscoW
On Forums: 13 years 6 months
Thanks: 2228 time(s)
Russian Federation




Thanks:
Go to the top of the page
  Insert nick Quick quote
+Quote Post

Reply to this topicStart new topic
2 User(s) are reading this topic (2 Guests and 0 Anonymous Users)
0 Members:

 



- Lo-Fi Version Support form
Copyrights and abuse reports form
Time is now: 6th June 2020 - 06:43:58