Welcome Guest ( Log In | Register )

 
Reply to this topicStart new topic
> Hyperborea - Umbra (2019), Death Metal (D7)
post Nov 14 2019, 11:58:43
Post #1

Serial Uploader
Group Icon
Group: V.I.P
Posts: 37,613
Releases: 35785
From: Lithuania
On Forums: 13 years 3 months
Thanks: 433548 time(s)
Lithuania


(IMG:https://metalarea.org/images/audiocovers/2019_Nov/acov_tid330286_thumb.jpg)

*Artist: Hyperborea
*Album: Umbra
*Year: 2019
*Genre: Death Metal
*Country: Bulgaria (IMG:https://metalarea.org/forum/style_images/flags/Bulgaria.png)
*Format: mp3@CBR320kbps
*Size: 99MB

Tracklist:
01. Jung's Forewarning 01:13
02. Home of My Misery 04:00
03. From Within 04:49
04. Silent Stream 05:40
05. Supermacists 03:17
06. Two Extremities 04:46
07. Unwelcome 05:19
08. Wrong Planet Syndrome 05:50
09. Atavistic Fear 07:30
******************************
Total playing time: 42:24



(IMG:https://metalarea.org/images/youtube.png)

Technical info
(IMG:https://metalarea.org/images/spectrogram/2019_Nov/6b089dd68df5fb88ca202a3cf8f93d57.png)
Input File: 02. Home of My Misery.mp3
Channels : 2
Sample Rate : 44100
Precision : 16-bit
Duration : 00:03:59.92 = 10580516 samples = 17994.1 CDDA sectors
File Size : 9.87M
Bit Rate : 329k
Sample Encoding: MPEG audio (layer I, II or III)
Comments :
Title=Home of My Misery
Artist=Hyperborea
Album=Umbra
Tracknumber=2
Year=2019-11-15
Genre=Metal
Discnumber=1



Register


Go to the top of the page
  Insert nick Quick quote
+Quote Post
post Nov 15 2019, 17:14:28
Post #2

Маньяк
**********
Group: Металариец
Posts: 1,296
Releases: 44
From: Moscow
On Forums: 15 years 2 months
Thanks: 1071 time(s)
Russian Federation


Классный альбом, молодцы болгары!
Go to the top of the page
  Insert nick Quick quote
+Quote Post
post Nov 15 2019, 21:07:26
Post #3

Два Литра
**
Group: Завсегдатай
Posts: 155
Releases: 2
From: Россия
On Forums: 12 years 6 months
Thanks: 261 time(s)
Russian Federation


Понравилось!
Go to the top of the page
  Insert nick Quick quote
+Quote Post
post Nov 26 2019, 11:59:12
Post #4

Schuldinerist
**************
Group: Металариец
Posts: 10,961
Releases: 34
From:
On Forums: 14 years 5 months
Thanks: 7235 time(s)
Russian Federation


Судя по моим же отзывам, раньше болгары мне больше нравились.
На третьем лонгплее слышу довольно заурядный death metal, сыгранный однако качественно и по канонам, но без огонька и изюминки.
Скорее 7/10, чем 8/10
Go to the top of the page
  Insert nick Quick quote
+Quote Post
post Jul 29 2020, 19:24:12
Post #5

ME[ta]LLOMAN
**************
Group: Металариец
Posts: 5,015
Releases: 3
From: Avdeyevka
On Forums: 15 years 5 months
Thanks: 2067 time(s)
Honduras


Register


Thanks:
Go to the top of the page
  Insert nick Quick quote
+Quote Post

Reply to this topicStart new topic
1 User(s) are reading this topic (1 Guests and 0 Anonymous Users)
0 Members:

 



- Lo-Fi Version Support form
Copyrights and abuse reports form
Time is now: 25th September 2021 - 02:10:26