Welcome Guest ( Log In | Register )

> The Death Wheelers - I Tread On Your Grave (2018), Stoner/Doom Metal/Garage Rock
post Nov 15 2019, 09:06:53
Post #1

Правь статус, ####!111
**************
Group: Металариец
Posts: 46,493
Releases: 718
On Forums: 11 years 4 days
Thanks: 39030 time(s)
Russian Federation


(IMG:http://metalarea.org/images/audiocovers/2019_Nov/acov_tid330359_thumb.jpg)

*Artist: The Death Wheelers
*Album: I Tread On Your Grave
*Year: 2018
*Genre: Stoner/Doom Metal/Garage Rock
*Country: Canada (IMG:http://metalarea.org/forum/style_images/flags/Canada.png)
*Format: mp3@CBR320kbps
*Size: 78MB

Tracklist:
1. I Tread On Your Grave 03:20
2. 13 Discycles 03:35
3. Roadkill 69 02:38
4. Sleazy Rider Returns 02:19
5. Deaf Wheelers // Marche Funèbre 04:23
6. Black Crack 02:17
7. Motö Vampiro 03:39
8. Purple Wings (Necrophonic Psych-Out) 01:30
9. Backstabber 03:02
10. RIP XXXLast RideXXX 04:40
11. Moby Dick (Capt. ACAB) 04:18
******************************
Total playing time: 35:41



Technical info
(IMG:http://metalarea.org/images/spectrogram/2019_Nov/cc2eee217eb8eecd2e7dc9f69e8dc55a.png)
Input File: 01 I Tread On Your Grave.mp3
Channels : 2
Sample Rate : 44100
Precision : 16-bit
Duration : 00:03:20.84 = 8857176 samples = 15063.2 CDDA sectors
File Size : 8.18M
Bit Rate : 326k
Sample Encoding: MPEG audio (layer I, II or III)
Comments :
Title=I Tread On Your Grave
Artist=The Death Wheelers
Album=I Tread On Your Grave
Tracknumber=1/11
Year=2018
Genre=17
Discnumber=1/1



Register


Go to the top of the page
  Insert nick Quick quote
+Quote Post
 
Start new topic
Replies (1 - 3)
post Nov 17 2019, 19:41:43
Post #2

Правь статус, ####!111
**************
Group: Металариец
Posts: 46,493
Releases: 718
On Forums: 11 years 4 days
Thanks: 39030 time(s)
Russian Federation


Отличнейшая отвязная винтажная оголтелость!
Go to the top of the page
  Insert nick Quick quote
+Quote Post
post Nov 18 2019, 11:40:58
Post #3

South Of Heaven /адепт ВУДУ
**************
Group: Металариец
Posts: 13,960
Releases: 9
On Forums: 10 years 2 months
Thanks: 5470 time(s)
Unknown


Инструментал.

Дебютник.

По превью приятственная муза.


Thanks:
Go to the top of the page
  Insert nick Quick quote
+Quote Post
post Nov 18 2019, 11:42:56
Post #4

Правь статус, ####!111
**************
Group: Металариец
Posts: 46,493
Releases: 718
On Forums: 11 years 4 days
Thanks: 39030 time(s)
Russian Federation


Советую еще их ипишки коротенькие, они в том же отвязно-рокенрольном ключе и их можно хапануть бесплатно на их бк:

Go to the top of the page
  Insert nick Quick quote
+Quote Post

Reply to this topicStart new topic
1 User(s) are reading this topic (1 Guests and 0 Anonymous Users)
0 Members:

 



- Lo-Fi Version Support form
Copyrights and abuse reports form
Time is now: 5th June 2020 - 15:41:56