Welcome Guest ( Log In | Register )

> И неформату есть предел.

Рэп/хип-хоп/шансон/поп удаляются. Для них есть свои порталы.

 
Reply to this topicStart new topic
> Agnosy - When Daylight Reveals The Torture (2019), Crust
post Nov 17 2019, 20:24:25
Post #1

Три Литра
***
Group: Завсегдатай
Posts: 284
Releases: 174
On Forums: 10 years 9 months
Thanks: 1804 time(s)
Russian Federation


(IMG:https://metalarea.org/images/audiocovers/2019_Nov/acov_tid330451_thumb.jpg)

*Artist: Agnosy
*Album: When Daylight Reveals The Torture
*Year: 2019
*Genre: Crust
*Country: United Kingdom (IMG:https://metalarea.org/forum/style_images/flags/United%20Kingdom.png)
*Format: mp3@CBR320kbps
*Size: 74MB

Tracklist:
01. Spit Out The Lies 04:39
02. From Hell 04:56
03. When Daylight Reveals The Torture 03:53
04. Scum 03:44
05. No Friends But The Mountains 05:51
06. War Death Famine Plague 03:17
07. Rise Of The Right 05:36
******************************
Total playing time: 31:56



Technical info
(IMG:https://metalarea.org/images/spectrogram/2019_Nov/c13156fd1e94cc077521dd077a6c1e2c.png)
Input File: 01 - Spit Out The Lies.mp3
Channels : 2
Sample Rate : 44100
Precision : 16-bit
Duration : 00:04:39.27 = 12315675 samples = 20945 CDDA sectors
File Size : 11.3M
Bit Rate : 324k
Sample Encoding: MPEG audio (layer I, II or III)
Comments :
Title=Spit Out The Lies
Artist=AGNOSY
Album=When Daylight Reveals The Torture
Tracknumber=1
Year=2019



Register


Go to the top of the page
  Insert nick Quick quote
+Quote Post

Reply to this topicStart new topic
1 User(s) are reading this topic (1 Guests and 0 Anonymous Users)
0 Members:

 



- Lo-Fi Version Support form
Copyrights and abuse reports form
Time is now: 11th December 2019 - 01:36:59