Welcome Guest ( Log In | Register )

Объявления

* gmail.com упорно продолжает считать почту с нас "unsolicited" и отбивает в том числе и письма активации, поэтому просьба использовать альтернативные почтовые ящики.
------------
* gmail.com continues reject all mail from us as "unsolicited" (activation mails too) therefore please use alternate mail servers.
> Astralborne - Eternity's End (2019), Melodic Death Metal
post Nov 21 2019, 12:44:40
Post #1

Serial Uploader
Group Icon
Group: V.I.P
Posts: 42,601
Releases: 40667
From: Lithuania
On Forums: 15 years 11 months
Thanks: 521335 time(s)
Lithuania


(IMG:https://metalarea.org/images/audiocovers/2019_Nov/acov_tid330611_thumb.jpg)

*Artist: Astralborne
*Album: Eternity's End
*Year: 2019
*Genre: Melodic Death Metal
*Country: United States (IMG:https://metalarea.org/forum/style_images/flags/United%20States.png)
*Format: mp3@CBR320kbps
*Size: 139MB

Tracklist:
01. Eulogy in Black
02. Attending the Funeral
03. Transcendence of Flesh
04. Paragon Amiss
05. Centuries (In Agony)
06. Architect of Suffering
07. Inglorious 20xx
08. The Obliterators
09. Eternity's End
10. Reflections
11. Hell Patrol (Bonus Track)
******************************
Total playing time: 1:00:29




Technical info
(IMG:https://metalarea.org/images/spectrogram/2019_Nov/cb874442954e204c3881cd957e618703.png)
Input File: 02 - Attending the Funeral.mp3
Channels : 2
Sample Rate : 44100
Precision : 16-bit
Duration : 00:06:42.62 = 17755586 samples = 30196.6 CDDA sectors
File Size : 16.2M
Bit Rate : 321k
Sample Encoding: MPEG audio (layer I, II or III)
Comments :
Title=Attending the Funeral
Artist=Astralborne
Album=Eternity's End
Tracknumber=2
Year=2019
Genre=Alternative/Indie Rock/Metal
Discnumber=1



Register


Go to the top of the page
  Insert nick Quick quote
+Quote Post
 
Start new topic
Replies (1 - 5)
post Nov 23 2019, 20:16:37
Post #2

Пять Литров
*****
Group: Металариец
Posts: 404
Releases: 5
On Forums: 17 years 2 months
Thanks: 330 time(s)
Russian Federation


А прямо хорошо
Go to the top of the page
  Insert nick Quick quote
+Quote Post
post Nov 23 2019, 20:25:05
Post #3

Волк без яблока
**************
Group: Металариец
Posts: 13,633
Releases: 107
From: Санкт-Петербург
On Forums: 17 years 8 months
Thanks: 16068 time(s)
Russian Federation


ЦИТАТА(goxther @ 23rd November 2019 - 22:16:37) *
А прямо хорошо

Может быть было бы, если бы не дичайшая компрессия барабанов и общий хлипкий звук.
Go to the top of the page
  Insert nick Quick quote
+Quote Post
post Nov 23 2019, 21:33:24
Post #4
BAN
Banned till
May 24 2024, 17:39:45



ЦИТАТА(goxther @ Nov 23 2019, 22:16:37) *
А прямо хорошо

А вот каверок слабоват
Go to the top of the page
  Insert nick Quick quote
+Quote Post
post Dec 11 2019, 14:33:02
Post #5

Ъ
**************
Group: Металариец
Posts: 11,214
Releases: 9
On Forums: 15 years 4 months
Thanks: 2277 time(s)
Sweden


ЦИТАТА(MeatWolf @ Nov 24 2019, 02:25:05) *
Может быть было бы, если бы не дичайшая компрессия барабанов и общий хлипкий звук.


Согласен, гитарка и вокал впринципе неплохие.
Go to the top of the page
  Insert nick Quick quote
+Quote Post
post Jul 30 2023, 17:10:49
Post #6

Два Литра
**
Group: Завсегдатай
Posts: 113
Releases: 0
On Forums: 3 years 5 months
Thanks: 10 time(s)
Unknown


From the web (320kbps):

Register


Go to the top of the page
  Insert nick Quick quote
+Quote Post

Reply to this topicStart new topic
1 User(s) are reading this topic (1 Guests and 0 Anonymous Users)
0 Members:

 



- Lo-Fi Version Support form
Copyrights and abuse reports form
Time is now: 28th May 2024 - 02:45:35