Welcome Guest ( Log In | Register )

> Admiral Sir Cloudesley Shovell - Very Uncertain Times (2019), Psychedelic/Hard Rock/Heavy Metal
post Nov 23 2019, 17:41:45
Post #1

Правь статус, ####!111
**************
Group: Металариец
Posts: 4,164
Releases: 3817
From: Одесса
On Forums: 13 years 1 month
Thanks: 41772 time(s)
Ukraine


(IMG:http://metalarea.org/images/audiocovers/2019_Nov/acov_tid330710_thumb.jpg)

*Artist: Admiral Sir Cloudesley Shovell
*Album: Very Uncertain Times
*Year: 2019
*Genre: Psychedelic/Hard Rock/Heavy Metal
*Country: United Kingdom (IMG:http://metalarea.org/forum/style_images/flags/United%20Kingdom.png)
*Format: mp3@CBR320kbps
*Size: 85MB

Tracklist:
1.Very Uncertain Times 05:28
2.Ten Years Later 03:24
3.The Third Degree 05:20
4.Mr. Freedom 03:17
5.Iceberg 04:27
6.Blackworth Quarry 04:32
7.Biscuits for Victor 04:13
8.No Man's Land 04:53
******************************
Total playing time: 35:34

iTunes

Extended info
Line - up:

Louis Comfort-Wiggett - Bass (ex-Bronco Bullfrog, ex-The Immediates)
Johnny Gorilla - Vocals, Guitars (Gorilla)
Serra Petale - Drums

(IMG:https://www.metal-archives.com/images/3/5/4/0/3540350545_photo.jpg?4218)


Technical info
(IMG:http://metalarea.org/images/spectrogram/2019_Nov/3470bd9ad25e2d668c48012b6a61b413.png)
Input File: 07. Biscuits For Victor.mp3
Channels : 2
Sample Rate : 44100
Precision : 16-bit
Duration : 00:04:13.56 = 11182040 samples = 19017.1 CDDA sectors
File Size : 10.2M
Bit Rate : 322k
Sample Encoding: MPEG audio (layer I, II or III)
Comments :
Title=Biscuits For Victor
Artist=Admiral Sir Cloudesley Shovell
Album=Very Uncertain Times
Tracknumber=7
Year=2019
Genre=Psychedelic/Hard Rock/Heavy Metal



Register


Go to the top of the page
  Insert nick Quick quote
+Quote Post
 
Start new topic
Replies (1 - 4)
post Nov 24 2019, 11:18:21
Post #2

ME[ta]LLOMAN
**************
Group: Металариец
Posts: 5,010
Releases: 3
From: Avdeyevka
On Forums: 15 years 3 months
Thanks: 2060 time(s)
Honduras





Thanks:
Go to the top of the page
  Insert nick Quick quote
+Quote Post
post Nov 24 2019, 11:54:01
Post #3

South Of Heaven /адепт ВУДУ
**************
Group: Металариец
Posts: 13,960
Releases: 9
On Forums: 11 years 3 months
Thanks: 5563 time(s)
Unknown


Под Лемми и Оззи сработано.
Go to the top of the page
  Insert nick Quick quote
+Quote Post
post Nov 24 2019, 13:23:01
Post #4

ME[ta]LLOMAN
**************
Group: Металариец
Posts: 5,010
Releases: 3
From: Avdeyevka
On Forums: 15 years 3 months
Thanks: 2060 time(s)
Honduras


ЦИТАТА(avkruchinin @ Nov 24 2019, 10:54:01) *
Под Лемми и Оззи сработано.

но потрачено (IMG:style_emoticons/default/1488.gif)
Go to the top of the page
  Insert nick Quick quote
+Quote Post
post Nov 25 2019, 08:03:01
Post #5

Правь статус, ####!111
**************
Group: Металариец
Posts: 49,020
Releases: 848
On Forums: 12 years 1 month
Thanks: 44072 time(s)
Russian Federation


Все их прядыдущие альбомцы не впечатляли. Чекну этот, може здесь будет хорошечно.
Go to the top of the page
  Insert nick Quick quote
+Quote Post

Reply to this topicStart new topic
1 User(s) are reading this topic (1 Guests and 0 Anonymous Users)
0 Members:

 



- Lo-Fi Version Support form
Copyrights and abuse reports form
Time is now: 1st August 2021 - 10:57:45