Welcome Guest ( Log In | Register )

> Throne Of Evil - Conocimiento Oculto [ep] (2017), Black Metal
post Nov 27 2019, 19:10:40
Post #1

the faceless one
Group Icon
Group: S-moderation team
Posts: 9,604
Releases: 1979
On Forums: 15 years 8 months
Thanks: 124235 time(s)
Antarctica


(IMG:http://metalarea.org/images/audiocovers/2019_Nov/acov_tid330869_thumb.jpg)

*Artist: Throne Of Evil
*Album: Conocimiento Oculto [ep]
*Year: 2017
*Genre: Black Metal
*Country: Chile (IMG:http://metalarea.org/forum/style_images/flags/Chile.png)
*Format: mp3@CBR320kbps
*Size: 69MB

Tracklist:
1. Bajando De La Montaña 09:10
2. New Shadows In The Cave 05:07
3. Liber Al Vel Vegis 05:52
4. Grito De Odio Ahogado En El Bosque 05:20
5. Himno A Satanás (Emperor Cover) 04:20
******************************
Total playing time: 29:49



Extended info
Schattenkult Produktionen


Technical info
(IMG:http://metalarea.org/images/spectrogram/2019_Nov/24812f4b5458c0b5e622f67d9db4d62c.png)
Input File: 02 - New Shadows In The Cave.mp3
Channels : 2
Sample Rate : 44100
Precision : 16-bit
Duration : 00:05:07.09 = 13542493 samples = 23031.5 CDDA sectors
File Size : 12.3M
Bit Rate : 320k
Sample Encoding: MPEG audio (layer I, II or III)
Comments :
Title=New Shadows In The Cave
Artist=Throne Of Evil
Album=Conocimiento Oculto
Tracknumber=02/05
Year=2017
Genre=Black Metal



Register


Go to the top of the page
  Insert nick Quick quote
+Quote Post
 
Start new topic
Replies (1 - 4)
post Nov 27 2019, 19:45:22
Post #2

Правь статус, ####!111
**************
Group: Металариец
Posts: 2,971
Releases: 12
On Forums: 16 years 8 months
Thanks: 1764 time(s)
Russian Federation


Дисок прибыл довольно давно. Ломовой релиз. Оттуда вообще материал с фантазией приходит, а не гейропейская вся эта пожилая петушня.


Go to the top of the page
  Insert nick Quick quote
+Quote Post
post Nov 27 2019, 20:36:52
Post #3

**************
Group: Металариец
Posts: 2,950
Releases: 14
From: Казань
On Forums: 14 years 7 months
Thanks: 4256 time(s)
Russian Federation


Эта лента Дышит Эмперором, источая шлейф освежеванных почивших эквилибриумов, даруя тем фирменную чилийскую Экспрессию, талантливо и вдохновленно. Сей неповторимый эмпероровский дух с хоралами незримо витает из песни в Песнь, подобно голубю, ищущему пристанище на полигоне сотен однотипных релизов, оккупировавших сознание ядовитым мейнстримом. Свалка "блэкметаллического" вторсырья однако недружелюбна к таким проявлениям Таланта, поэтому цепные псы звукозаписывающих лейблов зорко Стерегут Успех, добытый наскоро всеобщим отупением и леностью. Лети же оттуда, подальше от этого смрада, Великий Вестник Черного Искусства, неси свою Песнь чрез Откровение и Неуемную Красоту, ибо ты Можешь. Твое Благословение - в отблеске клинков, что будут рубить гордиевы узы пустых, дребезжащих лейблов и профанирующих мальчишек игрой в песочный блэкметал


Go to the top of the page
  Insert nick Quick quote
+Quote Post
post Nov 28 2019, 18:02:59
Post #4

Три Литра
***
Group: Завсегдатай
Posts: 214
Releases: 0
On Forums: 7 years 8 months
Thanks: 25 time(s)
Unknown


а 2019 год прибудет во зле сюды?


Thanks:
(1) Occultas,
Go to the top of the page
  Insert nick Quick quote
+Quote Post
post Dec 1 2019, 20:42:32
Post #5

De Mysteriis Dom Sathanas
**************
Group: Металариец
Posts: 4,790
Releases: 64
From: Doom
On Forums: 15 years 9 months
Thanks: 4253 time(s)
Russian Federation


Повеяло олдовой Скандинавией (IMG:style_emoticons/default/pray.gif)


Thanks:
(1) Occultas,
Go to the top of the page
  Insert nick Quick quote
+Quote Post

Reply to this topicStart new topic
1 User(s) are reading this topic (1 Guests and 0 Anonymous Users)
0 Members:

 



- Lo-Fi Version Support form
Copyrights and abuse reports form
Time is now: 19th April 2024 - 23:16:19