Welcome Guest ( Log In | Register )

> Teeth - The Curse Of Entropy (2019), Technical Death Metal (D4)
post Nov 28 2019, 11:30:00
Post #1

Правь статус, ####!111
**************
Group: Металариец
Posts: 22,696
Releases: 15789
From: Г.Харьков
On Forums: 8 years 3 months
Thanks: 290749 time(s)
Unknown


(IMG:http://metalarea.org/images/audiocovers/2019_Nov/acov_tid330892_thumb.jpg)

*Artist: Teeth
*Album: The Curse Of Entropy
*Year: 2019
*Genre: Technical Death Metal
*Country: United States (IMG:http://metalarea.org/forum/style_images/flags/United%20States.png)
*Format: mp3@CBR320kbps
*Size: 74MB

Tracklist:
1. Enlever 01:55
2. Husk 03:14
3. Wither 03:41
4. Collapse 02:30
5. Birthright 03:18
6. Cretin 03:13
7. Dread 02:04
8. Blindness 02:30
9. Entropy 03:06
10. Vessel 04:40
******************************
Total playing time: 30:11





Extended info
Peter King Bass
Erol Ulug Vocals, Guitars
Justin Moore Vocals, Guitars
Alejandro Aranda Drums


Technical info
(IMG:http://metalarea.org/images/spectrogram/2019_Nov/2543e9ab6d7f513393efc9184271e3e1.png)
Input File: 05. Birthright.mp3
Channels : 2
Sample Rate : 44100
Precision : 16-bit
Duration : 00:03:18.38 = 8748734 samples = 14878.8 CDDA sectors
File Size : 8.36M
Bit Rate : 337k
Sample Encoding: MPEG audio (layer I, II or III)
Comments :
Title=Birthright
Artist=Teeth
Album=The Curse of Entropy
Tracknumber=5
Year=2019
Genre=Technical Death
Discnumber=1



Register


Go to the top of the page
  Insert nick Quick quote
+Quote Post
 
Start new topic
Replies (1 - 5)
post Dec 9 2019, 06:35:58
Post #2

Шесть Литров
******
Group: Металариец
Posts: 504
Releases: 0
From: Нижний Новгород
On Forums: 14 years 2 weeks
Thanks: 207 time(s)
Russian Federation


По-моему зря адепты мрачного дэта пропускают этот релиз. Есть отсылки и к ранним Gorguts, и алогично-диссонансные соло, и мрачная атмосфера/пространство. Несколько проще грандов, но нельзя сказать, что плохо ... и даже хорошо.


Thanks:
Go to the top of the page
  Insert nick Quick quote
+Quote Post
post Dec 25 2019, 13:23:08
Post #3

Schuldinerist
**************
Group: Металариец
Posts: 10,823
Releases: 34
From:
On Forums: 13 years 4 months
Thanks: 6983 time(s)
Russian Federation


Тёмный ортодоксальный (техно-)дэт в лучших традициях 90-х. Без тюлюлю и извращений.
8+/10
Go to the top of the page
  Insert nick Quick quote
+Quote Post
post Jan 13 2020, 13:28:03
Post #4

Schuldinerist
**************
Group: Металариец
Posts: 10,823
Releases: 34
From:
On Forums: 13 years 4 months
Thanks: 6983 time(s)
Russian Federation


ЦИТАТА(mirotvorets @ Jan 13 2020, 10:08:57) *
Teeth - The Curse Of Entropy (2019)
нет в альбоме ничего святого, контент немотивировано злоехидный, мрачносинистроидный и безжалостно вредоносный.

засчитано как отзыв (IMG:style_emoticons/default/25.gif)


Thanks:
Go to the top of the page
  Insert nick Quick quote
+Quote Post
post Jan 13 2020, 14:24:36
Post #5

hard sci-fi rock
**************
Group: Металариец
Posts: 2,460
Releases: 48
From: Purple sea
On Forums: 2 years 6 months
Thanks: 2527 time(s)
Unknown


ЦИТАТА(Язва @ Jan 13 2020, 15:28:03) *
засчитано как отзыв (IMG:style_emoticons/default/25.gif)


(IMG:style_emoticons/default/15.gif) Сердитый, не особо техно, но Death Metal.
Go to the top of the page
  Insert nick Quick quote
+Quote Post
post Jan 13 2020, 14:34:30
Post #6
BAN
Banned till
Aug 12 2020, 20:46:45



Оно, вроде, как и да, но нет.

А вот обложка показывает, куда коллективу Раммштайн следует засунуть свой крайний альбом вместе с его крайней плотью обложкой.
Go to the top of the page
  Insert nick Quick quote
+Quote Post

Reply to this topicStart new topic
1 User(s) are reading this topic (1 Guests and 0 Anonymous Users)
0 Members:

 



- Lo-Fi Version Support form
Copyrights and abuse reports form
Time is now: 13th August 2020 - 21:21:57