Welcome Guest ( Log In | Register )

> Human Agony - Putrescence Of Calvary (2019), Black/Death Metal
post Nov 28 2019, 13:19:45
Post #1

Serial Uploader
Group Icon
Group: V.I.P
Posts: 42,048
Releases: 40118
From: Lithuania
On Forums: 15 years 8 months
Thanks: 511340 time(s)
Lithuania


(IMG:https://metalarea.org/images/audiocovers/2019_Nov/acov_tid330909_thumb.jpg)

*Artist: Human Agony
*Album: Putrescence Of Calvary
*Year: 2019
*Genre: Black/Death Metal
*Country: Canada (IMG:https://metalarea.org/forum/style_images/flags/Canada.png)
*Format: mp3@CBR320kbps
*Size: 72MB

Tracklist:
01. Introdution 01:05
02. Corpse Wound of Antichrist 02:29
03. Unwilling Blood 03:08
04. Covering Cherubim 02:43
05. Doctrine of Cruelty 02:18
06. Mouth of Spears 02:29
07. ... 01:34
08. Purity Withdrawn _ Angelic Castration 03:45
09. Mastered on Crucifix 02:57
10. Eviscerated for Ritual 03:02
11. Putrescence of Calvary 02:40
12. Outro 02:18
******************************
Total playing time: 30:28


(IMG:https://metalarea.org/images/youtube.png)

Technical info
(IMG:https://metalarea.org/images/spectrogram/2019_Nov/537d762e14c433af6648eedcd49cfdc1.png)
Input File: 02 Corpse Womb of Antichrist.mp3
Channels : 2
Sample Rate : 44100
Precision : 16-bit
Duration : 00:02:28.54 = 6550614 samples = 11140.5 CDDA sectors
File Size : 6.16M
Bit Rate : 332k
Sample Encoding: MPEG audio (layer I, II or III)
Comments :
Title=Corpse Womb of Antichrist
Artist=Human Agony
Album=Putrescence of Calvary
Tracknumber=2/12
Year=2019
Discnumber=1/1



Register


Go to the top of the page
  Insert nick Quick quote
+Quote Post
 
Start new topic
Replies (1 - 3)
post Dec 1 2019, 03:43:03
Post #2

Правь статус, ####!111
**************
Group: Металариец
Posts: 5,168
Releases: 1566
From: Brazil
On Forums: 12 years 1 month
Thanks: 63691 time(s)
Brazil


Register

Register

mp3@CBR320kbps


Go to the top of the page
  Insert nick Quick quote
+Quote Post
post Dec 1 2019, 05:21:45
Post #3

Absorbence
**************
Group: Металариец
Posts: 2,553
Releases: 670
From: Vastland Abyss of Cthulhu
On Forums: 17 years 3 months
Thanks: 11195 time(s)
United States


awesome release
Go to the top of the page
  Insert nick Quick quote
+Quote Post
post Dec 1 2019, 20:40:52
Post #4

De Mysteriis Dom Sathanas
**************
Group: Металариец
Posts: 4,748
Releases: 64
From: Doom
On Forums: 15 years 7 months
Thanks: 4210 time(s)
Russian Federation


Одна из немногих достойных Goat black/death команд (IMG:style_emoticons/default/pray.gif)


Thanks:
Go to the top of the page
  Insert nick Quick quote
+Quote Post

Reply to this topicStart new topic
1 User(s) are reading this topic (1 Guests and 0 Anonymous Users)
0 Members:

 



- Lo-Fi Version Support form
Copyrights and abuse reports form
Time is now: 3rd March 2024 - 00:20:30