Welcome Guest ( Log In | Register )

 
Reply to this topicStart new topic
> Mausoleum - Gospel Of The Soil (2018), Black Metal
post Nov 28 2019, 18:59:36
Post #1

the faceless one
Group Icon
Group: S-moderation team
Posts: 9,326
Releases: 1924
On Forums: 11 years 9 months
Thanks: 114865 time(s)
Russian Federation


(IMG:http://metalarea.org/images/audiocovers/2019_Nov/acov_tid330941_thumb.jpg)

*Artist: Mausoleum
*Album: Gospel Of The Soil
*Year: 2018
*Genre: Black Metal
*Country: Canada (IMG:http://metalarea.org/forum/style_images/flags/Canada.png)
*Format: mp3@CBR320kbps
*Size: 81MB

Tracklist:
1. Host 06:23
2. Soil 09:15
3. Servant 07:35
4. Blight 04:59
5. Soul 07:04
******************************
Total playing time: 35:16



Extended info
Murder On Ponce


Technical info
(IMG:http://metalarea.org/images/spectrogram/2019_Nov/43b03229e4b14661adaccc5ad79fbe64.png)
Input File: 02 Soil.mp3
Channels : 2
Sample Rate : 44100
Precision : 16-bit
Duration : 00:09:14.58 = 24457154 samples = 41593.8 CDDA sectors
File Size : 22.2M
Bit Rate : 320k
Sample Encoding: MPEG audio (layer I, II or III)
Comments :
Title=Soil
Artist=Mausoleum
Album=Gospel Of The Soil
Tracknumber=2
Year=2019



Register


Go to the top of the page
  Insert nick Quick quote
+Quote Post

Reply to this topicStart new topic
2 User(s) are reading this topic (2 Guests and 0 Anonymous Users)
0 Members:

 



- Lo-Fi Version Support form
Copyrights and abuse reports form
Time is now: 6th June 2020 - 05:24:09