Welcome Guest ( Log In | Register )

> Umbra Conscientia - Yellowing Of The Lunar Consciousness (2019), Black Metal
post Nov 30 2019, 17:24:52
Post #1

Мегаманьяк
***********
Group: Металариец
Posts: 1,942
Releases: 1536
From: Praha
On Forums: 5 years 11 months
Thanks: 38667 time(s)
Czech Republic


(IMG:http://metalarea.org/images/audiocovers/2019_Nov/acov_tid331003_thumb.jpg)

*Artist: Umbra Conscientia
*Album: Yellowing Of The Lunar Consciousness
*Year: 2019
*Genre: Black Metal
*Country: International (IMG:http://metalarea.org/forum/style_images/flags/International.png)
*Format: mp3@CBR320kbps
*Size: 92MB

Tracklist:
1. El caos que precede a la creación 02:30
2. Maze of Exile 04:24
3. Romance of Contradictions 05:54
4. Citrinitas 05:05
5. Umbra Conscientia 05:58
6. Lord of Phosphorus 06:25
7. Yellowing of the Lunar Consciousness 08:59
******************************
Total playing time: 39:15



Extended info
Terratur Possessions


Technical info
(IMG:http://metalarea.org/images/spectrogram/2019_Nov/8d79c66638d96f537555538ed5b73218.png)
Input File: 03. Romance of Contradictions.mp3
Channels : 2
Sample Rate : 44100
Precision : 16-bit
Duration : 00:05:54.16 = 15618588 samples = 26562.2 CDDA sectors
File Size : 14.3M
Bit Rate : 323k
Sample Encoding: MPEG audio (layer I, II or III)
Comments :
Title=Romance of Contradictions
Artist=Umbra Conscientia
Album=Yellowing of the Lunar Conciousness
Tracknumber=03/07
Year=2019
Genre=Black Metal



Register


Go to the top of the page
  Insert nick Quick quote
+Quote Post
 
Start new topic
Replies (1 - 1)
post Dec 11 2019, 17:36:39
Post #2

Crush! Kill! Destroy!
**************
Group: Металариец
Posts: 5,308
Releases: 15
From: Kaliningrad
On Forums: 12 years 4 months
Thanks: 4924 time(s)
Russian Federation


Словно откопали какой-то затерянный изумруд года из 94-95. Отличная работа, все по олдскулу!


Thanks:
(1) smes,
Go to the top of the page
  Insert nick Quick quote
+Quote Post

Reply to this topicStart new topic
2 User(s) are reading this topic (2 Guests and 0 Anonymous Users)
0 Members:

 



- Lo-Fi Version Support form
Copyrights and abuse reports form
Time is now: 3rd April 2020 - 12:03:23