Welcome Guest ( Log In | Register )

> Crystal Eyes - Starbourne Traveler (2019), Power Metal (D)
post Dec 5 2019, 11:24:26
Post #1

Serial Uploader
Group Icon
Group: V.I.P
Posts: 37,601
Releases: 35773
From: Lithuania
On Forums: 13 years 5 days
Thanks: 432752 time(s)
Lithuania


(IMG:https://metalarea.org/images/audiocovers/2019_Dec/acov_tid331163_thumb.jpg)

*Artist: Crystal Eyes
*Album: Starbourne Traveler
*Year: 2019
*Genre: Power Metal
*Country: Sweden (IMG:https://metalarea.org/forum/style_images/flags/Sweden.png)
*Format: mp3@CBR320kbps
*Size: 102MB

Tracklist:
01. Gods of Disorder 03:44
02. Side by Side 04:12
03. Extreme Paranoia 03:41
04. Starbourne Traveler 04:33
05. Corridors of Time 04:02
06. Paradise Powerlord 03:35
07. Into the Fire 04:09
08. In the Empire of Saints 05:15
09. Midnight Radio 04:03
10. Rage on the Sea (Re-recorded) 07:06
******************************
Total playing time: 44:20

(IMG:https://metalarea.org/images/myspace.png)

(IMG:https://metalarea.org/images/youtube.png)

Technical info
(IMG:https://metalarea.org/images/spectrogram/2019_Dec/15e898d07aebd34549e361064f4a062d.png)
Input File: 02 Side by Side.mp3
Channels : 2
Sample Rate : 44100
Precision : 16-bit
Duration : 00:04:12.83 = 11149671 samples = 18962 CDDA sectors
File Size : 10.1M
Bit Rate : 320k
Sample Encoding: MPEG audio (layer I, II or III)
Comments :
Title=Side by Side
Artist=Crystal Eyes
Album=Starbourne Traveler
Tracknumber=02/10
Year=2019-19-20
Discnumber=1/1



Register


Go to the top of the page
  Insert nick Quick quote
+Quote Post
 
Start new topic
Replies (1 - 10)
post Dec 5 2019, 12:30:11
Post #2

Добрый
**************
Group: Металариец
Posts: 4,875
Releases: 0
On Forums: 2 years 11 months
Thanks: 12092 time(s)
Russian Federation


103 mb/320 kbps
Register


Go to the top of the page
  Insert nick Quick quote
+Quote Post
post Dec 5 2019, 14:54:36
Post #3

тебе 30, а ты все реверсами балуешься
**************
Group: Металариец
Posts: 2,088
Releases: 4
On Forums: 12 years 10 months
Thanks: 763 time(s)
Russian Federation


Прямолинейно как копьё в башку.
Фончиком ок.


Thanks:
Go to the top of the page
  Insert nick Quick quote
+Quote Post
post Dec 5 2019, 21:27:08
Post #4

Семь Литров
*******
Group: Металариец
Posts: 749
Releases: 0
From: Sweden
On Forums: 12 years 3 months
Thanks: 23 time(s)
Sweden


Thank you!
Go to the top of the page
  Insert nick Quick quote
+Quote Post
post Dec 5 2019, 21:28:08
Post #5

Литр
*
Group: Подсевший
Posts: 74
Releases: 0
On Forums: 3 years 3 months
Thanks: 32 time(s)
Saint Helena


Вот прям отлично (IMG:style_emoticons/default/pray.gif)


Go to the top of the page
  Insert nick Quick quote
+Quote Post
post Dec 7 2019, 09:45:55
Post #6

Мегаманьяк
***********
Group: Металариец
Posts: 1,744
Releases: 290
On Forums: 12 years 6 months
Thanks: 6597 time(s)
Russian Federation


FLAC tracks
Register


Thanks:
Go to the top of the page
  Insert nick Quick quote
+Quote Post
post Dec 7 2019, 14:46:24
Post #7

Шесть Литров
******
Group: Металариец
Posts: 542
Releases: 0
From: Лыткарино
On Forums: 2 years 1 month
Thanks: 135 time(s)
Russian Federation


Слушать можно, но очень предсказуемо, мелодии совсем избиты. Чисто для фанатов жанра.


Thanks:
Go to the top of the page
  Insert nick Quick quote
+Quote Post
post Dec 10 2019, 11:01:05
Post #8

Necromancer
Group Icon
Group: Curation team
Posts: 11,046
Releases: 271
From: Зеленоград
On Forums: 14 years 8 months
Thanks: 8913 time(s)
Russian Federation


Понравилось. (IMG:style_emoticons/default/20.gif)
Go to the top of the page
  Insert nick Quick quote
+Quote Post
post Dec 14 2019, 11:04:06
Post #9

Ъ
**************
Group: Металариец
Posts: 10,649
Releases: 9
On Forums: 12 years 5 months
Thanks: 2168 time(s)
Sweden


Фоном осилил пол альбома, третьесорт.
Go to the top of the page
  Insert nick Quick quote
+Quote Post
post Dec 20 2019, 21:47:34
Post #10

Necromancer
Group Icon
Group: Curation team
Posts: 11,046
Releases: 271
From: Зеленоград
On Forums: 14 years 8 months
Thanks: 8913 time(s)
Russian Federation


Я раза три альбом прослушал... Очень клёвый альбом. (IMG:style_emoticons/default/20.gif)


Thanks:
Go to the top of the page
  Insert nick Quick quote
+Quote Post
post Dec 23 2019, 07:08:28
Post #11

Наливай!
**************
Group: Металариец
Posts: 6,005
Releases: 27
From: Москва-Бибирево
On Forums: 13 years 2 months
Thanks: 3108 time(s)
Russian Federation


Песенку Side by Side оставлю пожалуй, хороший такой Running Wild.
Go to the top of the page
  Insert nick Quick quote
+Quote Post

Reply to this topicStart new topic
2 User(s) are reading this topic (2 Guests and 0 Anonymous Users)
0 Members:

 



- Lo-Fi Version Support form
Copyrights and abuse reports form
Time is now: 12th June 2021 - 22:35:30