Welcome Guest ( Log In | Register )

Объявления

* gmail.com упорно продолжает считать почту с нас "unsolicited" и отбивает в том числе и письма активации, поэтому просьба использовать альтернативные почтовые ящики.
------------
* gmail.com continues reject all mail from us as "unsolicited" (activation mails too) therefore please use alternate mail servers.
> Pénitence Onirique - Vestige (2019), Black Metal
post Dec 5 2019, 15:30:52
Post #1

Serial Uploader
Group Icon
Group: V.I.P
Posts: 42,746
Releases: 40809
From: Lithuania
On Forums: 16 years 1 week
Thanks: 523281 time(s)
Lithuania


(IMG:https://metalarea.org/images/audiocovers/2019_Dec/acov_tid331190_thumb.jpg)

*Artist: Pénitence Onirique
*Album: Vestige
*Year: 2019
*Genre: Black Metal
*Country: France (IMG:https://metalarea.org/forum/style_images/flags/France.png)
*Format: mp3@CBR320kbps
*Size: 98MB

Tracklist:
01. Le corps gelé de Lyse 07:12
02. La cité des larmes 07:29
03. Les sirènes misérables 08:58
04. Hespéros 02:54
05. Extase exquise 06:15
06. Souveraineté suprême 06:40
07. Vestige 06:47
******************************
Total playing time: 46:15



(IMG:https://metalarea.org/images/youtube.png)

Technical info
(IMG:https://metalarea.org/images/spectrogram/2019_Dec/a1d54e7b56c084ddc3e1ff65559b87c4.png)
Input File: 02. La cité des Larmes.mp3
Channels : 2
Sample Rate : 44100
Precision : 16-bit
Duration : 00:07:29.94 = 19842134 samples = 33745.1 CDDA sectors
File Size : 18.1M
Bit Rate : 321k
Sample Encoding: MPEG audio (layer I, II or III)
Comments :
Title=La cité des Larmes
Artist=Pénitence Onirique
Album=Vestige
Tracknumber=2/7
Year=2019
Genre=9
Discnumber=1/1



Register


Go to the top of the page
  Insert nick Quick quote
+Quote Post
 
Start new topic
Replies (1 - 4)
post Dec 9 2019, 01:50:36
Post #2

Правь статус, ####!111
**************
Group: Металариец
Posts: 5,173
Releases: 1568
From: Brazil
On Forums: 12 years 4 months
Thanks: 64272 time(s)
Brazil


Register

Register

mp3@CBR320kbps


Go to the top of the page
  Insert nick Quick quote
+Quote Post
post Dec 12 2019, 15:59:53
Post #3

Два Литра
**
Group: Завсегдатай
Posts: 159
Releases: 2
From: г. Нальчик
On Forums: 11 years 6 months
Thanks: 649 time(s)
Russian Federation


FLAC (tracks) 298 MB
Register


Go to the top of the page
  Insert nick Quick quote
+Quote Post
post Jan 8 2020, 14:16:33
Post #4

Black Death Grind Madness
*******
Group: Металариец
Posts: 738
Releases: 0
From: Cassilandia
On Forums: 15 years 11 months
Thanks: 91 time(s)
Brazil


QUOTE(Arkwulf @ Dec 12 2019, 17:59:53) *
FLAC (tracks) 298 MB

Thanks for Flac version (IMG:style_emoticons/default/redp.gif) (IMG:style_emoticons/default/true_black.gif) (IMG:style_emoticons/default/9.gif)
Go to the top of the page
  Insert nick Quick quote
+Quote Post
post Oct 11 2023, 05:50:30
Post #5

Правь статус, ####!111
**************
Group: Металариец
Posts: 3,178
Releases: 0
From: д. Гадюкино
On Forums: 10 years 3 weeks
Thanks: 3247 time(s)
Russian Federation


FLAC (image +.cue +scans)
Register


Thanks:
Go to the top of the page
  Insert nick Quick quote
+Quote Post

Reply to this topicStart new topic
2 User(s) are reading this topic (2 Guests and 0 Anonymous Users)
0 Members:

 



- Lo-Fi Version Support form
Copyrights and abuse reports form
Time is now: 14th June 2024 - 00:23:13