Welcome Guest ( Log In | Register )

Объявления

* gmail.com упорно продолжает считать почту с нас "unsolicited" и отбивает в том числе и письма активации, поэтому просьба использовать альтернативные почтовые ящики.
------------
* gmail.com continues reject all mail from us as "unsolicited" (activation mails too) therefore please use alternate mail servers.

> Правила / Rules

Тут только для чтения лежат низкобитрейтные (<192kbps) релизы, для которых есть аналоги в высокобитрейтных форумах.

Here goes (and stand in read only mode) low bitrate releases (<192kbps) which were already replaced by high bitrate releases in corresponding forums.

> Thorybos - The Foul And The Flagrant [ep] (2019), Black/Death Metal (D4)
post Dec 10 2019, 16:38:52
Post #1

н е д е л и м о е
**************
Group: Металариец
Posts: 2,482
Releases: 231
On Forums: 12 years 7 months
Thanks: 5168 time(s)
Russian Federation


(IMG:http://metalarea.org/images/audiocovers/2019_Dec/acov_tid331365_thumb.jpg)

*Artist: Thorybos
*Album: The Foul And The Flagrant [ep]
*Year: 2019
*Genre: Black/Death Metal
*Country: Germany (IMG:http://metalarea.org/forum/style_images/flags/Germany.png)
*Format: mp3@CBR320kbps
*Size: 46MB

Tracklist:
1. Kephalomantic Necrophany 03:13
2. Teeth, Tongues And Rites 04:31
3. Khor Virap 02:54
4. Immured With The Deceased 03:53
5. Morbid Consecration 03:09
6. Darkness Attack (Black Witchery Cover) 02:38
******************************
Total playing time: 20:18


(IMG:http://metalarea.org/images/youtube.png)
(IMG:http://metalarea.org/images/youtube.png)

Technical info
(IMG:http://metalarea.org/images/spectrogram/2019_Dec/d5763382a4c971d76859163e0af2f2f0.png)
Input File: 02 - Teeth, Tongues And Rites.mp3
Channels : 2
Sample Rate : 44100
Precision : 16-bit
Duration : 00:04:31.85 = 11988497 samples = 20388.6 CDDA sectors
File Size : 10.9M
Bit Rate : 320k
Sample Encoding: MPEG audio (layer I, II or III)



Register


Go to the top of the page
  Insert nick Quick quote
+Quote Post
 
Start new topic
Replies (1 - 3)
post Dec 10 2019, 21:40:45
Post #2

Group: Подсевший
Posts: 48
Releases: 0
On Forums: 9 years 9 months
Thanks: 33 time(s)
Unknown


looks same as my 128 kbps
Go to the top of the page
  Insert nick Quick quote
+Quote Post
post Dec 12 2019, 07:36:03
Post #3

De Mysteriis Dom Sathanas
**************
Group: Металариец
Posts: 4,800
Releases: 64
From: Doom
On Forums: 15 years 10 months
Thanks: 4285 time(s)
Russian Federation


Нежданчик, давненько не слышал о них. (IMG:style_emoticons/default/pray.gif) Оказывается у них еще и 2016 полноформатник есть, на арее нет его (IMG:style_emoticons/default/6.gif)


Thanks:
(1) Occultas,
Go to the top of the page
  Insert nick Quick quote
+Quote Post
post Dec 12 2019, 18:50:10
Post #4

Литр
*
Group: Подсевший
Posts: 85
Releases: 0
On Forums: 6 years 8 months
Thanks: 71 time(s)
NATO


QUOTE(RUSP73 @ Dec 12 2019, 07:36:03) *
Н давненько не слышал о них.

The band was put on hold for a while, because one of them went on a spiritual journey or something like that.
QUOTE(Thorybos)
01.11.16 - ANNOUNCEMENT - By the end of 2016 THORYBOS will go on hiatus and stop recording, live & interview activities for a year or more. The reason is a 12+ month unavailability of V. Tyrant (vox) due to some extended purist nomad travel kind of shit, solitarily exploring the ancient ruins of the Mediterranean, Western Asia, the Middle East and so forth. To attend a THORYBOS live gig, our appearances at the NWN!-WarmUp show & the DMED Festival (both Berlin) will be your last possibilities for an unknown period of time. Meanwhile the rest of the band will concentrate on writing new material for a forthcoming split LP as well as our second album 'Saliva and Black Venom'.


Thanks:
(1) Occultas,
Go to the top of the page
  Insert nick Quick quote
+Quote Post

Причина закрытия (Хогги 08-01-2020):
Closed TopicStart new topic
1 User(s) are reading this topic (1 Guests and 0 Anonymous Users)
0 Members:

 



- Lo-Fi Version Support form
Copyrights and abuse reports form
Time is now: 28th May 2024 - 18:17:26