Welcome Guest ( Log In | Register )

> Sartegos - O Sangue Da Noite (2019), Death/Black Metal (D4)
post Dec 12 2019, 11:05:43
Post #1

Правь статус, ####!111
**************
Group: Металариец
Posts: 32,629
Releases: 24118
From: Г.Харьков
On Forums: 11 years 3 weeks
Thanks: 509523 time(s)
Ukraine


(IMG:http://metalarea.org/images/audiocovers/2019_Dec/acov_tid331409_thumb.jpg)

*Artist: Sartegos
*Album: O Sangue Da Noite
*Year: 2019
*Genre: Death/Black Metal
*Country: Spain (IMG:http://metalarea.org/forum/style_images/flags/Spain.png)
*Format: mp3@CBR320kbps
*Size: 103MB

Tracklist:
1. Uentos (Prelúdio) 01:28
2. Sangue e Noite 05:18
3. Lajes em Tormento e Decadencia 05:48
4. Solpor dos Misterios 04:48
5. Iugular (Interlúdio) 01:35
6. Arqueiro (estrondo nos céus de negro outono) 06:04
7. As Devesas som dos Lobos 07:00
8. Baphomet no Rashulmat 04:17
9. Poáo e Serpe 03:47
10. Aguas Negras (Final) 01:43
******************************
Total playing time: 41:48



Extended info
R. Morgade Guitars, Bass, Vocals


Technical info
(IMG:http://metalarea.org/images/spectrogram/2019_Dec/e307cb6e3cb6ce254a9d286cbf3c076f.png)
Input File: 03 Lajes Em Tormento E Decadência.mp3
Channels : 2
Sample Rate : 44100
Precision : 16-bit
Duration : 00:05:48.08 = 15350196 samples = 26105.8 CDDA sectors
File Size : 14.8M
Bit Rate : 340k
Sample Encoding: MPEG audio (layer I, II or III)
Comments :
Title=Lajes Em Tormento E Decadência
Artist=Sartegos
Album=O Sangue Da Noite
Tracknumber=3
Year=2019
Genre=Black Metal



Register


Go to the top of the page
  Insert nick Quick quote
+Quote Post
 
Start new topic
Replies (1 - 1)
post Jan 5 2020, 16:05:20
Post #2
BAN
Banned till
Jul 22 2202, 06:47:53



Это конечно богатство .


Thanks:
Go to the top of the page
  Insert nick Quick quote
+Quote Post

Reply to this topicStart new topic
1 User(s) are reading this topic (1 Guests and 0 Anonymous Users)
0 Members:

 



- Lo-Fi Version Support form
Copyrights and abuse reports form
Time is now: 3rd June 2023 - 13:26:56