Welcome Guest ( Log In | Register )

> Daemon Of Oa - Ασέληνος Νύκτα (2019), Black Metal (D4)
post Dec 18 2019, 20:52:21
Post #1

Маньяк
**********
Group: Металариец
Posts: 1,115
Releases: 940
From: Новороссийск
On Forums: 12 years 10 months
Thanks: 18841 time(s)
Russian Federation


(IMG:https://metalarea.org/images/audiocovers/2019_Dec/acov_tid331653_thumb.jpg)

*Artist: Daemon Of Oa
*Album: Ασέληνος Νύκτα
*Year: 2019
*Genre: Black Metal
*Country: Greece (IMG:https://metalarea.org/forum/style_images/flags/Greece.png)
*Format: mp3@CBR320kbps
*Size: 88MB

Tracklist:
01. Intro 00:31
02. Of Flesh Black And Chthonic 05:17
03. Archangels Of Antichristian League 04:48
04. Sigil Of Magog 04:12
05. Mormolyke 04:49
06. Trance And Death 03:40
07. Ασέληνος Νύκτα 07:52
08. Nocturnal Wanderings 07:20
******************************
Total playing time: 38:32




Technical info
(IMG:https://metalarea.org/images/spectrogram/2019_Dec/8db7ac28ddc3fe8cf8368b72236cb2d2.png)
Input File: 02 Of Flesh Black and Chthonic.mp3
Channels : 2
Sample Rate : 44100
Precision : 16-bit
Duration : 00:05:17.38 = 13996546 samples = 23803.6 CDDA sectors
File Size : 12.7M
Bit Rate : 320k
Sample Encoding: MPEG audio (layer I, II or III)
Comments :
Title=Of Flesh Black and Chthonic
Artist=Daemon Of Oa
Album=Ασέληνος Νύκτα
Tracknumber=02
Year=2019
Genre=Black Metal



Register


Go to the top of the page
  Insert nick Quick quote
+Quote Post
 
Start new topic
Replies (1 - 2)
post Dec 18 2019, 21:52:15
Post #2

Десять Литров Тёплого Молока
**********
Group: Металариец
Posts: 1,226
Releases: 13
On Forums: 16 years 2 weeks
Thanks: 1572 time(s)
Russian Federation


Похоже на говно, над которым жужжат мухи.


Thanks:
(1) Ildjarn,
Go to the top of the page
  Insert nick Quick quote
+Quote Post
post Dec 19 2019, 16:03:16
Post #3

De Mysteriis Dom Sathanas
**************
Group: Металариец
Posts: 4,748
Releases: 64
From: Doom
On Forums: 15 years 7 months
Thanks: 4210 time(s)
Russian Federation


Ван-мэн проект от человека, раньше игравшего хэви метал)
Go to the top of the page
  Insert nick Quick quote
+Quote Post

Reply to this topicStart new topic
2 User(s) are reading this topic (2 Guests and 0 Anonymous Users)
0 Members:

 



- Lo-Fi Version Support form
Copyrights and abuse reports form
Time is now: 3rd March 2024 - 11:01:43