Welcome Guest ( Log In | Register )

> Null - Lore Of A Sleeping Forest (2019), Atmospheric Black Metal
post Dec 20 2019, 18:04:03
Post #1

Правь статус, ####!111
**************
Group: Металариец
Posts: 21,205
Releases: 14487
From: Г.Харьков
On Forums: 7 years 10 months
Thanks: 258356 time(s)
Unknown


(IMG:http://metalarea.org/images/audiocovers/2019_Dec/acov_tid331714_thumb.jpg)

*Artist: Null
*Album: Lore Of A Sleeping Forest
*Year: 2019
*Genre: Atmospheric Black Metal
*Country: United States (IMG:http://metalarea.org/forum/style_images/flags/United%20States.png)
*Format: mp3@CBR320kbps
*Size: 251MB

Tracklist:
CD 1:
1. Longing for Winter
2. Lore of a Sleeping Forest
3. Acceptance of Misery
4. Echoes of Torment
5. My Cold Fate
6. Morket Tristskogen
7. Autumnal Twilight
CD 2:
1. Etheric Nights
2. Withering Flame
3. Return
4. Starlore
5. Forgotten Nights
6. Forests Aflame
7. From Storms to Stars
******************************
Total playing time: 1:49:00



Extended info
Melkor Drums, Guitars, Vocals, Keyboards, Bass (2010-present)


Technical info
(IMG:http://metalarea.org/images/spectrogram/2019_Dec/f2439fd32cdefa19bef1aee7842bda00.png)
Input File: 03 - Acceptance of Misery.mp3
Channels : 2
Sample Rate : 44100
Precision : 16-bit
Duration : 00:08:04.39 = 21361687 samples = 36329.4 CDDA sectors
File Size : 19.4M
Bit Rate : 320k
Sample Encoding: MPEG audio (layer I, II or III)
Comments :
Title=Acceptance of Misery
Artist=Null
Album=Lore of a Sleeping Forest
Tracknumber=3
Year=2019
Genre=Black Metal
Discnumber=1



Register


Go to the top of the page
  Insert nick Quick quote
+Quote Post
 
Start new topic
Replies (1 - 7)
post Dec 20 2019, 19:14:50
Post #2

Правь статус, ####!111
**************
Group: Металариец
Posts: 21,205
Releases: 14487
From: Г.Харьков
On Forums: 7 years 10 months
Thanks: 258356 time(s)
Unknown


Cloud Mail 320
Register


Go to the top of the page
  Insert nick Quick quote
+Quote Post
post Dec 21 2019, 09:39:13
Post #3

Маньяк
**********
Group: Металариец
Posts: 1,295
Releases: 0
From: Russian Federation - St.Petersburg
On Forums: 11 years 4 weeks
Thanks: 320 time(s)
Russian Federation


Душевная вещь! (IMG:style_emoticons/default/20.gif)
Go to the top of the page
  Insert nick Quick quote
+Quote Post
post Dec 21 2019, 18:20:51
Post #4

MDM-Thrash Metal
**************
Group: Металариец
Posts: 9,341
Releases: 790
From: Одесса
On Forums: 12 years 7 months
Thanks: 21273 time(s)
Ukraine




ЦИТАТА(Olrak @ Dec 21 2019, 12:39:13) *
Душевная вещь! (IMG:style_emoticons/default/20.gif)

Ептиль, на 2 часа душевности...


Thanks:
(1) TodesGott,
Go to the top of the page
  Insert nick Quick quote
+Quote Post
post Dec 22 2019, 10:03:10
Post #5

Маньяк
**********
Group: Металариец
Posts: 1,295
Releases: 0
From: Russian Federation - St.Petersburg
On Forums: 11 years 4 weeks
Thanks: 320 time(s)
Russian Federation


ЦИТАТА(Andrew @ Dec 21 2019, 20:20:51) *

Ептиль, на 2 часа душевности...

Нормально! Я уже несколько раз прогнал за работой! (IMG:style_emoticons/default/pleased.gif) (IMG:style_emoticons/default/bye.gif)
Хреново только, что CD2 инструментал с эпизодическим хором!
Go to the top of the page
  Insert nick Quick quote
+Quote Post
post Dec 23 2019, 15:49:08
Post #6

Leegte
***********
Group: Металариец
Posts: 1,607
Releases: 14
From: Kiovia
On Forums: 7 years 11 months
Thanks: 2309 time(s)
Ukraine


Каскадненько, забираем.
Go to the top of the page
  Insert nick Quick quote
+Quote Post
post Jan 6 2020, 19:37:58
Post #7

Мегаманьяк
***********
Group: Металариец
Posts: 1,569
Releases: 24
From: Spain
On Forums: 12 years 7 months
Thanks: 1246 time(s)
Spain


the version with the bonus tracks please???
Go to the top of the page
  Insert nick Quick quote
+Quote Post
post Jan 6 2020, 19:56:10
Post #8

ретроград
**************
Group: Металариец
Posts: 5,046
Releases: 182
On Forums: 12 years 9 months
Thanks: 7576 time(s)
Vatican City


ЦИТАТА(Kwaad @ Dec 23 2019, 17:49:08) *
Каскадненько

проходим мимо


Thanks:
(1) Chasm,
Go to the top of the page
  Insert nick Quick quote
+Quote Post

Reply to this topicStart new topic
2 User(s) are reading this topic (2 Guests and 0 Anonymous Users)
0 Members:

 



- Lo-Fi Version Support form
Copyrights and abuse reports form
Time is now: 1st April 2020 - 10:23:11