Welcome Guest ( Log In | Register )

> Lethal Prophecy - Blind Creator's Plague (2019), Death Metal
post Dec 22 2019, 16:29:49
Post #1

Правь статус, ####!111
**************
Group: Металариец
Posts: 26,055
Releases: 18704
From: Г.Харьков
On Forums: 9 years 6 days
Thanks: 370946 time(s)
Unknown


(IMG:http://metalarea.org/images/audiocovers/2019_Dec/acov_tid331778_thumb.jpg)

*Artist: Lethal Prophecy
*Album: Blind Creator's Plague
*Year: 2019
*Genre: Death Metal
*Country: Russian Federation (IMG:http://metalarea.org/forum/style_images/flags/Russian%20Federation.png)
*Format: mp3@CBR320kbps
*Size: 67MB

Tracklist:
1. Attrition 04:51
2. Erroneous Perception 03:22
3. Event Horizon 03:29
4. Ill-born Incapacity 03:20
5. Draw in Purgatory 04:04
6. Torpid Specie 03:10
7. Atomized 03:52
8. Blind Creator's Plague 02:59
******************************
Total playing time: 29:07



Preview 3

Extended info
Anton Kostin Bass (2012-present)
See also: ex-Stygian Eternity
Alexander Shlyannikov Guitars (2012-present)
See also: ex-Stygian Eternity
K.H. Vocals (2017-present)
See also: Odem, Skogmark, Healer
Mor Drums (2019-present)
See also: Skogmark



Technical info
(IMG:http://metalarea.org/images/spectrogram/2019_Dec/d334eb34b6137cb1349f3352fd5a4664.png)
Input File: 05 - Draw in Purgatory.mp3
Channels : 2
Sample Rate : 44100
Precision : 16-bit
Duration : 00:04:04.88 = 10798988 samples = 18365.6 CDDA sectors
File Size : 9.80M
Bit Rate : 320k
Sample Encoding: MPEG audio (layer I, II or III)
Comments :
Title=Draw in Purgatory
Artist=Lethal Prophecy
Album=Blind Creator's Plague
Tracknumber=5
Year=2019
Genre=Death Metal



Register


Go to the top of the page
  Insert nick Quick quote
+Quote Post
 
Start new topic
Replies (1 - 2)
post Dec 23 2019, 03:27:26
Post #2

Правь статус, ####!111
**************
Group: Металариец
Posts: 26,055
Releases: 18704
From: Г.Харьков
On Forums: 9 years 6 days
Thanks: 370946 time(s)
Unknown


FLAC (Tracks) 229 mb
Register


Thanks:
(1) Olethros,
Go to the top of the page
  Insert nick Quick quote
+Quote Post
post May 4 2021, 22:34:07
Post #3

antithesis
**************
Group: Металариец
Posts: 3,333
Releases: 35
From: VRN
On Forums: 10 years 11 months
Thanks: 2140 time(s)
Russian Federation


довольно сильный гроул; неплохие, но как будто неживые барабаны. при этом риффы (а в этом стиле без оных ну вообще никуда) будто нейросеть накидывала - винегрет и скука, лишь эпизодически годнота проскакивает. на полраза.
Torpid Specie - гут.
Go to the top of the page
  Insert nick Quick quote
+Quote Post

Reply to this topicStart new topic
1 User(s) are reading this topic (1 Guests and 0 Anonymous Users)
0 Members:

 



- Lo-Fi Version Support form
Copyrights and abuse reports form
Time is now: 16th May 2021 - 19:08:43