Welcome Guest ( Log In | Register )

> И неформату есть предел.

Рэп/хип-хоп/шансон/поп удаляются. Для них есть свои порталы.

 
Reply to this topicStart new topic
> Dogmeat - Bite [ep] (1994), Industrial Metal
post Dec 24 2019, 13:44:50
Post #1

Group: Подсевший
Posts: 41
Releases: 7
On Forums: 3 years 10 months
Thanks: 167 time(s)
Russian Federation


(IMG:http://metalarea.org/images/audiocovers/2019_Dec/acov_tid331824_thumb.jpg)

*Artist: Dogmeat
*Album: Bite [ep]
*Year: 1994
*Genre: Industrial Metal
*Country: Finland (IMG:http://metalarea.org/forum/style_images/flags/Finland.png)
*Format: mp3@CBR192kbps
*Size: 21MB

Tracklist:
01. Eat Meat 01:48
02. This Dog Will Bite 02:58
03. Revolution Paradise 02:09
04. Shrouded Tears 04:24
05. Razors 04:08
******************************
Total playing time: 15:27

Technical info
(IMG:http://metalarea.org/images/spectrogram/2019_Dec/1ff2f24ecbf05601f4dd3f0dca459338.png)
Input File: 01. Eat Meat.mp3
Channels : 2
Sample Rate : 44100
Precision : 16-bit
Duration : 00:01:48.74 = 4795522 samples = 8155.65 CDDA sectors
File Size : 2.61M
Bit Rate : 192k
Sample Encoding: MPEG audio (layer I, II or III)
Comments :
Title=Eat Meat
Artist=Dogmeat
Album=Bite
Tracknumber=1
Year=1994
Genre=Industrial Metal



Register


Thanks:
Go to the top of the page
  Insert nick Quick quote
+Quote Post

Reply to this topicStart new topic
1 User(s) are reading this topic (1 Guests and 0 Anonymous Users)
0 Members:

 



- Lo-Fi Version Support form
Copyrights and abuse reports form
Time is now: 5th August 2021 - 17:56:27