Welcome Guest ( Log In | Register )

> И неформату есть предел.

Рэп/хип-хоп/шансон/поп удаляются. Для них есть свои порталы.

 
Reply to this topicStart new topic
> Fret - Over Depth (2017), Industrial/Illbient
post Dec 25 2019, 21:14:22
Post #1

Два Литра
**
Group: Завсегдатай
Posts: 175
Releases: 7
From: Санкт-Петербург
On Forums: 13 years 9 months
Thanks: 483 time(s)
Russian Federation


(IMG:http://metalarea.org/images/audiocovers/2019_Dec/acov_tid331865_thumb.jpg)

*Artist: Fret
*Album: Over Depth
*Year: 2017
*Genre: Industrial/Illbient
*Country: United Kingdom (IMG:http://metalarea.org/forum/style_images/flags/United%20Kingdom.png)
*Format: mp3@CBR320kbps
*Size: 134MB

Tracklist:
01. Lift Method 05:38
02. The Waiting Room 06:49
03. Meadow Taken Back 05:53
04. Murderous Weight 05:30
05. LO30 05:41
06. Stuck In The Track At Salford Priors 04:57
07. Etched Beaked Point 05:13
08. Lifford Res 05:46
09. B14 05:15
10. No Rain 05:43
******************************
Total playing time: 56:24

(IMG:http://metalarea.org/images/youtube.png)


Extended info
Mick Harris returns after several years of hiatus with ten tracks of blasting landmine bass and interlocking shrapnel rhythms.

Personal purchaise.


Technical info
(IMG:http://metalarea.org/images/spectrogram/2019_Dec/724f2d6592268bc3523c7bc54fcbfb15.png)
Input File: 01 - Lift Method.mp3
Channels : 2
Sample Rate : 44100
Precision : 16-bit
Duration : 00:05:38.46 = 14926262 samples = 25384.8 CDDA sectors
File Size : 13.7M
Bit Rate : 323k
Sample Encoding: MPEG audio (layer I, II or III)
Comments :
Title=Lift Method
Artist=Fret
Album=Over Depth
Tracknumber=01
Year=2017
Genre=Industrial/Illbient/Experimental



Register


Go to the top of the page
  Insert nick Quick quote
+Quote Post

Reply to this topicStart new topic
1 User(s) are reading this topic (1 Guests and 0 Anonymous Users)
0 Members:

 



- Lo-Fi Version Support form
Copyrights and abuse reports form
Time is now: 21st February 2020 - 08:07:56