Welcome Guest ( Log In | Register )

> И неформату есть предел.

Рэп/хип-хоп/шансон/поп удаляются. Для них есть свои порталы.

 
Reply to this topicStart new topic
> There's A Light - Khartoum [ep] (2012), Post-Rock/Experimental
post Dec 27 2019, 16:18:05
Post #1

Мегаманьяк
***********
Group: Металариец
Posts: 1,794
Releases: 163
From: Omsk, Siberia
On Forums: 11 years 1 week
Thanks: 3528 time(s)
Russian Federation


(IMG:http://metalarea.org/images/audiocovers/2019_Dec/acov_tid331902_thumb.jpg)

*Artist: There's A Light
*Album: Khartoum [ep]
*Year: 2012
*Genre: Post-Rock/Experimental
*Country: Germany (IMG:http://metalarea.org/forum/style_images/flags/Germany.png)
*Format: mp3@CBR320kbps
*Size: 41MB

Tracklist:
1. Unity 03:46
2. Khartoum 04:34
3. Eudaimonia 03:56
4. We Choose To Go To The Moon 04:09
******************************
Total playing time: 16:26



(IMG:http://metalarea.org/images/youtube.png)

Extended info
All music was written and recorded in 2012 by:

David Christmann
Jonas Obermüller
Andreas Richau
Nicolas Richau


Track 1 contains parts of the final speech from the movie "The Great Dictator" by Charlie Chaplin.


Technical info
(IMG:http://metalarea.org/images/spectrogram/2019_Dec/2fa988f1e043d5f7df02fd7d715f0123.png)
Input File: 01 Unity.mp3
Channels : 2
Sample Rate : 44100
Precision : 16-bit
Duration : 00:03:46.08 = 9969952 samples = 16955.7 CDDA sectors
File Size : 9.17M
Bit Rate : 324k
Sample Encoding: MPEG audio (layer I, II or III)
Comments :
Title=Unity
Artist=There's A Light
Album=Khartoum
Tracknumber=1
Year=2012
Genre=Post-Rock



Register


Thanks:
Go to the top of the page
  Insert nick Quick quote
+Quote Post

Reply to this topicStart new topic
1 User(s) are reading this topic (1 Guests and 0 Anonymous Users)
0 Members:

 



- Lo-Fi Version Support form
Copyrights and abuse reports form
Time is now: 2nd April 2020 - 10:33:44