Welcome Guest ( Log In | Register )

> И неформату есть предел.

Рэп/хип-хоп/шансон/поп удаляются. Для них есть свои порталы.

 
Reply to this topicStart new topic
> Strikkeklubben - Filtered Sonics (2015), Dark Jazz
post Dec 27 2019, 19:40:39
Post #1

Три Литра
***
Group: Завсегдатай
Posts: 229
Releases: 8
From: Санкт-Петербург
On Forums: 14 years 2 weeks
Thanks: 792 time(s)
Russian Federation


(IMG:http://metalarea.org/images/audiocovers/2019_Dec/acov_tid331908_thumb.jpg)

*Artist: Strikkeklubben
*Album: Filtered Sonics
*Year: 2015
*Genre: Dark Jazz
*Country: Denmark (IMG:http://metalarea.org/forum/style_images/flags/Denmark.png)
*Format: mp3@CBR320kbps
*Size: 114MB

Tracklist:
01. Blowout 04:45
02. Stort Set 05:49
03. Stuck 05:32
04. They Sang For Her 06:51
05. Den Eftermiddag 03:12
06. Fragile Thoughts 05:00
07. Train Ride In Spring 05:42
08. Stóra Dímón 05:08
09. Here It Ends 06:41
******************************
Total playing time: 48:38



Technical info
(IMG:http://metalarea.org/images/spectrogram/2019_Dec/387332b1be7f3ca6fbf563b43264f0af.png)
Input File: 01 - Blowout.mp3
Channels : 2
Sample Rate : 44100
Precision : 16-bit
Duration : 00:04:44.65 = 12553021 samples = 21348.7 CDDA sectors
File Size : 11.4M
Bit Rate : 321k
Sample Encoding: MPEG audio (layer I, II or III)
Comments :
Title=Blowout
Artist=Strikkeklubben
Album=Filtered Sonics
Tracknumber=01
Year=2015
Genre=Dark Jazz



Register


Go to the top of the page
  Insert nick Quick quote
+Quote Post

Reply to this topicStart new topic
1 User(s) are reading this topic (1 Guests and 0 Anonymous Users)
0 Members:

 



- Lo-Fi Version Support form
Copyrights and abuse reports form
Time is now: 5th June 2020 - 06:48:07