Welcome Guest ( Log In | Register )

> И неформату есть предел.

Рэп/хип-хоп/шансон/поп удаляются. Для них есть свои порталы.

 
Reply to this topicStart new topic
> Ronnie Wood - Not For Beginners (2001), Rock
post Dec 29 2019, 08:39:17
Post #1

Маньяк
**********
Group: Металариец
Posts: 1,004
Releases: 191
On Forums: 2 years 5 months
Thanks: 2853 time(s)
Canada


(IMG:https://metalarea.org/images/audiocovers/2019_Dec/acov_tid331973_thumb.jpg)

*Artist: Ronnie Wood
*Album: Not For Beginners
*Year: 2001
*Genre: Rock
*Country: United Kingdom (IMG:https://metalarea.org/forum/style_images/flags/United%20Kingdom.png)
*Format: mp3@CBR320kbps
*Size: 101MB

Tracklist:
1. Wayside 02:36
2. Rock N' Roll Star (Byrds cover) 03:23
3. Whadd'ya Think 02:58
4. This Little Heart 03:39
5. Leaving Here (Eddie Holland cover) 03:16
6. Hypershine (3:36
7. R. U. Behaving Yourself? 03:23
8. Be Beautiful 03:14
9. Wake Up You Beauty 03:19
10. Interfere 04:39
11. Real Hard Rocker 03:07
12. Heart, Soul And Body 03:22
13. King Of Kings (Bob Dylan cover) 03:36
******************************
Total playing time: 44:08



Technical info
(IMG:https://metalarea.org/images/spectrogram/2019_Dec/12cb6acbd7756d520f9fc19e050e1286.png)
Input File: 02.Rock N\' Roll Star.mp3
Channels : 2
Sample Rate : 44100
Precision : 16-bit
Duration : 00:03:23.33 = 8966633 samples = 15249.4 CDDA sectors
File Size : 8.14M
Bit Rate : 320k
Sample Encoding: MPEG audio (layer I, II or III)
Comments :
Title=Rock N' Roll Star
Artist=Ronnie Wood
Album=Not For Beginners
Tracknumber=2



Register


Thanks:
(1) Olethros,
Go to the top of the page
  Insert nick Quick quote
+Quote Post

Reply to this topicStart new topic
1 User(s) are reading this topic (1 Guests and 0 Anonymous Users)
0 Members:

 



- Lo-Fi Version Support form
Copyrights and abuse reports form
Time is now: 24th July 2021 - 05:07:33