Welcome Guest ( Log In | Register )

> И неформату есть предел.

Рэп/хип-хоп/шансон/поп удаляются. Для них есть свои порталы.

 
Reply to this topicStart new topic
> Jaap Middernacht - Gruwel [demo] (2018), Neofolk
post Dec 30 2019, 08:10:01
Post #1

Правь статус, ####!111
**************
Group: Металариец
Posts: 4,219
Releases: 1142
From: Brazil
On Forums: 8 years 2 weeks
Thanks: 42333 time(s)
Brazil


(IMG:https://metalarea.org/images/audiocovers/2019_Dec/acov_tid332018_thumb.jpg)

*Artist: Jaap Middernacht
*Album: Gruwel [demo]
*Year: 2018
*Genre: Neofolk
*Country: Netherlands (IMG:https://metalarea.org/forum/style_images/flags/Netherlands.png)
*Format: mp3@VBR270kbps
*Size: 30MB

Tracklist:
1 Cultus
2 De wijn van hart en vaten
3 Necromantiek (een kadaver zegt geen nee)
4 Intro (feat De Leegte)
5 In stilte verzwelgen wij alles (feat De Leegte)
6 De kluizenaar (feat De Aarde)
******************************
Total playing time: 14:55



Extended info
First demo by Jaap Middernacht.

Great folk project with influences of acts such as early The Velvet Underground.

Released on tape by The Throat


Tape-rip by Zero


Technical info
(IMG:https://metalarea.org/images/spectrogram/2019_Dec/a3726cbcbf3a5a29a8dcfb3780f90c59.png)
Input File: 01 Cultus.mp3
Channels : 2
Sample Rate : 44100
Precision : 16-bit
Duration : 00:02:53.17 = 7636577 samples = 12987.4 CDDA sectors
File Size : 6.11M
Bit Rate : 282k
Sample Encoding: MPEG audio (layer I, II or III)
Comments :
Title=Cultus
Artist=Jaap Middernacht
Album=Gruwel
Tracknumber=1/6
Year=2018
Discnumber=1/1



Register


Thanks:
Go to the top of the page
  Insert nick Quick quote
+Quote Post

Reply to this topicStart new topic
2 User(s) are reading this topic (2 Guests and 0 Anonymous Users)
0 Members:

 



- Lo-Fi Version Support form
Copyrights and abuse reports form
Time is now: 17th February 2020 - 08:07:01