Welcome Guest ( Log In | Register )

> И неформату есть предел.

Рэп/хип-хоп/шансон/поп удаляются. Для них есть свои порталы.

 
Reply to this topicStart new topic
> Trepaneringsritualen - ᛉᛦ – Algir; Eller Algir I Merkstave (2019), Dark Ambient/Industrial (D17)
post Dec 30 2019, 14:24:49
Post #1

Group: Подсевший
Posts: 14
Releases: 1
On Forums: 10 months 4 weeks
Thanks: 42 time(s)
Unknown


(IMG:https://metalarea.org/images/audiocovers/2019_Dec/acov_tid332033_thumb.jpg)

*Artist: Trepaneringsritualen
*Album: ᛉᛦ – Algir; Eller Algir I Merkstave
*Year: 2019
*Genre: Dark Ambient/Industrial
*Country: Sweden (IMG:https://metalarea.org/forum/style_images/flags/Sweden.png)
*Format: mp3@CBR320kbps
*Size: 85MB

Tracklist:
01. ᛉ 19:00
02. ᛦ 19:00
******************************
Total playing time: 38:00


(IMG:https://metalarea.org/images/youtube.png)

Technical info
(IMG:https://metalarea.org/images/spectrogram/2019_Dec/3839b0ad1c0e8d30e22cca07c39abc58.png)
Input File: 01. ᛉ.mp3
Channels : 2
Sample Rate : 44100
Precision : 16-bit
Duration : 00:19:00.15 = 50280791 samples = 85511.5 CDDA sectors
File Size : 45.9M
Bit Rate : 322k
Sample Encoding: MPEG audio (layer I, II or III)
Comments :
Title=ᛉ
Artist=Trepaneringsritualen
Album=ᛉᛦ – Algir; Eller Algir I Merkstave
Tracknumber=01
Year=2019
Genre=Dark Ambient; Industrial



Register


Go to the top of the page
  Insert nick Quick quote
+Quote Post

Reply to this topicStart new topic
2 User(s) are reading this topic (2 Guests and 0 Anonymous Users)
0 Members:

 



- Lo-Fi Version Support form
Copyrights and abuse reports form
Time is now: 28th November 2020 - 02:40:14