Welcome Guest ( Log In | Register )

> Skravl & War Is Aer - Skravl/War Is Aer [split] (2018), Black Metal | Black Metal
post Jan 1 2020, 01:21:24
Post #1

Правь статус, ####!111
**************
Group: Металариец
Posts: 4,790
Releases: 1471
From: Brazil
On Forums: 9 years 3 months
Thanks: 54837 time(s)
Brazil


(IMG:https://metalarea.org/images/audiocovers/2020_Jan/acov_tid332099_thumb.jpg)

*Artist: Skravl & War Is Aer
*Album: Skravl/War Is Aer [split]
*Year: 2018
*Genre: Black Metal | Black Metal
*Country: Denmark (IMG:https://metalarea.org/forum/style_images/flags/Denmark.png) | Denmark (IMG:https://metalarea.org/forum/style_images/flags/Denmark.png)
*Format: mp3@CBR320kbps
*Size: 75MB

Tracklist:
Skravl:
1. Hole of Light 08:11
2. Where I Can Finally Dwell 03:15
3. Finite Days 04:23
War Is Aer:
4. The Falling Co-ordinates of Time and Space 07:27
5. The Burning Wish of the Sun 08:38
******************************
Total playing time: 31:54



Extended info
First appearance from these two solo projects, sprunged from the fertile grounds of the Korpsånd collective.

As always, terrific melancholic and heroic Black Metal sound from the danish soil.

Released on digital and cassette formats through Legion Blotan.


Technical info
(IMG:https://metalarea.org/images/spectrogram/2020_Jan/feba7544e8b92db0efbdc44f1e81b38f.png)
Input File: 04 War Is Aer - The Falling Co-ordinates Of Time And Space.mp3
Channels : 2
Sample Rate : 44100
Precision : 16-bit
Duration : 00:07:28.08 = 19760196 samples = 33605.8 CDDA sectors
File Size : 18.3M
Bit Rate : 327k
Sample Encoding: MPEG audio (layer I, II or III)
Comments :
Title=The Falling Co-ordinates Of Time And Space
Artist=War Is Aer
Album=Skravl / War Is Aer
Tracknumber=4
Year=2018



Register


Go to the top of the page
  Insert nick Quick quote
+Quote Post
 
Start new topic
Replies (1 - 1)
post Apr 7 2021, 15:05:16
Post #2

Два Литра
**
Group: Завсегдатай
Posts: 109
Releases: 0
On Forums: 1 year 5 months
Thanks: 4 time(s)
Russian Federation


Flac?
Go to the top of the page
  Insert nick Quick quote
+Quote Post

Reply to this topicStart new topic
1 User(s) are reading this topic (1 Guests and 0 Anonymous Users)
0 Members:

 



- Lo-Fi Version Support form
Copyrights and abuse reports form
Time is now: 15th May 2021 - 22:25:48