Welcome Guest ( Log In | Register )

> И неформату есть предел.

Рэп/хип-хоп/шансон/поп удаляются. Для них есть свои порталы.

 
Reply to this topicStart new topic
> Paint The Sky Red - Paint The Sky Red (2011), Post-Rock
post Jan 4 2020, 22:16:35
Post #1

Три Литра
***
Group: Завсегдатай
Posts: 246
Releases: 7
From: Житомир
On Forums: 12 years 4 weeks
Thanks: 186 time(s)
Ukraine


(IMG:http://metalarea.org/images/audiocovers/2020_Jan/acov_tid332238_thumb.jpg)

*Artist: Paint The Sky Red
*Album: Paint The Sky Red
*Year: 2011
*Genre: Post-Rock
*Country: Singapore (IMG:http://metalarea.org/forum/style_images/flags/Singapore.png)
*Format: mp3@CBR320kbps
*Size: 102MB

Tracklist:
1.Eventually 05:42
2.Bridge We Crossed 10:02
3.Derail Your Train of Thoughts 06:28
4.Fly Me Linda 06:26
5.Like Flowers In Ultraviolet 06:19
6.The Passing 09:23
******************************
Total playing time: 44:20



Technical info
(IMG:http://metalarea.org/images/spectrogram/2020_Jan/73a5fc5af6dfe262a3af4659762267c1.png)
Input File: 02. Bridge We Crossed.mp3
Channels : 2
Sample Rate : 44100
Precision : 16-bit
Duration : 00:10:02.24 = 26558652 samples = 45167.8 CDDA sectors
File Size : 24.2M
Bit Rate : 321k
Sample Encoding: MPEG audio (layer I, II or III)
Comments :
Title=Bridge We Crossed
Artist=Paint The Sky Red
Album=Paint The Sky Red
Tracknumber=2/6
Year=2011
Genre=Post-Rock



Register


Thanks:
(1) Olethros,
Go to the top of the page
  Insert nick Quick quote
+Quote Post

Reply to this topicStart new topic
2 User(s) are reading this topic (2 Guests and 0 Anonymous Users)
0 Members:

 



- Lo-Fi Version Support form
Copyrights and abuse reports form
Time is now: 17th February 2020 - 07:15:31