Welcome Guest ( Log In | Register )

> И неформату есть предел.

Рэп/хип-хоп/шансон/поп удаляются. Для них есть свои порталы.

 
Reply to this topicStart new topic
> Paint The Sky Red - There Is A Tomorrow You Don't Know (2019), Post-Rock
post Jan 4 2020, 22:25:38
Post #1

Три Литра
***
Group: Завсегдатай
Posts: 246
Releases: 7
From: Житомир
On Forums: 12 years 1 month
Thanks: 186 time(s)
Ukraine


(IMG:http://metalarea.org/images/audiocovers/2020_Jan/acov_tid332240_thumb.jpg)

*Artist: Paint The Sky Red
*Album: There Is A Tomorrow You Don't Know
*Year: 2019
*Genre: Post-Rock
*Country: Singapore (IMG:http://metalarea.org/forum/style_images/flags/Singapore.png)
*Format: mp3@CBR320kbps
*Size: 81MB

Tracklist:
1.A Light For Every Shadow 06:50
2.Amber 05:08
3.With Those Whom You Love 06:33
4.Every Breath is a Gift 07:19
5.Moments in Between 09:17
******************************
Total playing time: 35:07



Technical info
(IMG:http://metalarea.org/images/spectrogram/2020_Jan/1fe171896e849764d43b465aac0bea95.png)
Input File: 02 - Amber.mp3
Channels : 2
Sample Rate : 44100
Precision : 16-bit
Duration : 00:05:09.07 = 13630163 samples = 23180.5 CDDA sectors
File Size : 12.4M
Bit Rate : 321k
Sample Encoding: MPEG audio (layer I, II or III)
Comments :
Title=Amber
Artist=Paint The Sky Red
Album=There Is A Tomorrow You Don't Know
Tracknumber=2/5
Year=2019
Genre=Post-Rock



Register


Thanks:
Go to the top of the page
  Insert nick Quick quote
+Quote Post

Reply to this topicStart new topic
2 User(s) are reading this topic (2 Guests and 0 Anonymous Users)
0 Members:

 



- Lo-Fi Version Support form
Copyrights and abuse reports form
Time is now: 21st February 2020 - 08:32:29