Welcome Guest ( Log In | Register )

> Releases Upload / Добавление релизов

Добавить релиз тут / Click here to add release
Рекомендованные обменники / Recommended file shares

> Vaeok - Vaeok [ep] (2020), Black Metal
post Jan 7 2020, 15:59:30
Post #1

Detective Godzilla
Group Icon
Group: Moderation team
Posts: 3,376
Releases: 294
On Forums: 9 years 1 week
Thanks: 10658 time(s)
Russian Federation


(IMG:https://metalarea.org/images/audiocovers/2020_Jan/acov_tid332340_thumb.jpg)

*Artist: Vaeok
*Album: Vaeok [ep]
*Year: 2020
*Genre: Black Metal
*Country: United States (IMG:https://metalarea.org/forum/style_images/flags/United%20States.png)
*Format: mp3@CBR320kbps
*Size: 50MB

Tracklist:
01. Terricula Nox 07:00
02. Atrox 03:23
03. Malaesthete 05:01
04. Souls Void 05:53
******************************
Total playing time: 21:17



Extended info
Personal purchase


Technical info
(IMG:https://metalarea.org/images/spectrogram/2020_Jan/4687632683fc39a8d7de6489242a99fa.png)
Input File: VAEOK - Vaeok - 03 Malaesthete.mp3
Channels : 2
Sample Rate : 44100
Precision : 16-bit
Duration : 00:05:01.70 = 13305146 samples = 22627.8 CDDA sectors
File Size : 12.2M
Bit Rate : 323k
Sample Encoding: MPEG audio (layer I, II or III)
Comments :
Title=Malaesthete
Artist=Vaeok
Album=Vaeok
Tracknumber=3
Year=2020



Register


Go to the top of the page
  Insert nick Quick quote
+Quote Post
 
Start new topic
Replies (1 - 3)
post Jan 8 2020, 09:00:11
Post #2

Литр
*
Group: Подсевший
Posts: 57
Releases: 0
On Forums: 9 years 10 months
Thanks: 50 time(s)
Ukraine


Сразу слышен Nightbringer. Хороший релиз!


Thanks:
(1) Occultas,
Go to the top of the page
  Insert nick Quick quote
+Quote Post
post Jan 8 2020, 09:57:23
Post #3

алкооккултизмЪ и шапка из фольги
**************
Group: Металариец
Posts: 3,451
Releases: 0
On Forums: 4 years 3 weeks
Thanks: 2144 time(s)
Unknown


а то и думаю, чего у меня сразу уши завяли.
Go to the top of the page
  Insert nick Quick quote
+Quote Post
post Jan 8 2020, 12:55:48
Post #4

Detective Godzilla
Group Icon
Group: Moderation team
Posts: 3,376
Releases: 294
On Forums: 9 years 1 week
Thanks: 10658 time(s)
Russian Federation


garmonbozia, (IMG:style_emoticons/default/1488.gif)


Thanks:
Go to the top of the page
  Insert nick Quick quote
+Quote Post

Reply to this topicStart new topic
2 User(s) are reading this topic (2 Guests and 0 Anonymous Users)
0 Members:

 



- Lo-Fi Version Support form
Copyrights and abuse reports form
Time is now: 21st February 2020 - 04:36:36