Welcome Guest ( Log In | Register )

> И неформату есть предел.

Рэп/хип-хоп/шансон/поп удаляются. Для них есть свои порталы.

 
Reply to this topicStart new topic
> 11 Bis - Metal En Vena (2020), Heavy Metal/Hard Rock
post Jan 11 2020, 11:09:55
Post #1

Восемь Литров
********
Group: Металариец
Posts: 833
Releases: 123
On Forums: 11 years 3 months
Thanks: 2296 time(s)
Russian Federation


(IMG:http://metalarea.org/images/audiocovers/2020_Jan/acov_tid332522_thumb.jpg)

*Artist: 11 Bis
*Album: Metal En Vena
*Year: 2020
*Genre: Heavy Metal/Hard Rock
*Country: Spain (IMG:http://metalarea.org/forum/style_images/flags/Spain.png)
*Format: mp3@CBR320kbps
*Size: 80MB

Tracklist:
01. El Sabio 03:27
02. Metal en Vena 03:56
03. Jackie 03:49
04. 47 Rosas 03:17
05. Sr Doctor 04:00
06. Cadillac el Dorado 03:57
07. Ni Verguenza Ni Respeto 03:31
08. Picando Piedra 04:35
09. Guerrero Medieval 04:18
******************************
Total playing time: 34:50

Extended info


Technical info
(IMG:http://metalarea.org/images/spectrogram/2020_Jan/e7ef53deae6ea60bb238954636421f49.png)
Input File: 01-El Sabio.mp3
Channels : 2
Sample Rate : 44100
Precision : 16-bit
Duration : 00:03:26.90 = 9124466 samples = 15517.8 CDDA sectors
File Size : 8.28M
Bit Rate : 320k
Sample Encoding: MPEG audio (layer I, II or III)
Comments :
Title=El Sabio
Artist=11 Bis
Album=Metal en Vena
Tracknumber=1
Year=2020
Genre=Heavy Metal / Hard Rock



Register


Go to the top of the page
  Insert nick Quick quote
+Quote Post

Reply to this topicStart new topic
1 User(s) are reading this topic (1 Guests and 0 Anonymous Users)
0 Members:

 



- Lo-Fi Version Support form
Copyrights and abuse reports form
Time is now: 17th February 2020 - 08:20:14