Welcome Guest ( Log In | Register )

> И неформату есть предел.

Рэп/хип-хоп/шансон/поп удаляются. Для них есть свои порталы.

 
Reply to this topicStart new topic
> Quoit - Properties (2001), Drum & Bass/Industrial
post Jan 11 2020, 19:49:19
Post #1

Два Литра
**
Group: Завсегдатай
Posts: 175
Releases: 7
From: Санкт-Петербург
On Forums: 13 years 9 months
Thanks: 480 time(s)
Russian Federation


(IMG:http://metalarea.org/images/audiocovers/2020_Jan/acov_tid332545_thumb.jpg)

*Artist: Quoit
*Album: Properties
*Year: 2001
*Genre: Drum & Bass/Industrial
*Country: United Kingdom (IMG:http://metalarea.org/forum/style_images/flags/United%20Kingdom.png)
*Format: mp3@CBR320kbps
*Size: 121MB

Tracklist:
01. Going After 07:26
02. Clang 07:32
03. Cells 07:38
04. Trek 06:34
05. Close Season 09:10
06. Detour 07:23
07. Lurker 07:01
******************************
Total playing time: 52:44

(IMG:http://metalarea.org/images/youtube.png)

Extended info
2-й альбом проекта Мика Харриса


Technical info
(IMG:http://metalarea.org/images/spectrogram/2020_Jan/de5b25f2d75fb42780e834d501b492f3.png)
Input File: 01 - Going After.mp3
Channels : 2
Sample Rate : 44100
Precision : 16-bit
Duration : 00:07:25.73 = 19656649 samples = 33429.7 CDDA sectors
File Size : 17.8M
Bit Rate : 320k
Sample Encoding: MPEG audio (layer I, II or III)
Comments :
Title=Going After
Artist=Quoit
Album=Properties
Tracknumber=01
Year=2001
Genre=Drum & Bass/Industrial



Register


Thanks:
Go to the top of the page
  Insert nick Quick quote
+Quote Post

Reply to this topicStart new topic
1 User(s) are reading this topic (1 Guests and 0 Anonymous Users)
0 Members:

 



- Lo-Fi Version Support form
Copyrights and abuse reports form
Time is now: 21st February 2020 - 07:10:26