Welcome Guest ( Log In | Register )

> И неформату есть предел.

Рэп/хип-хоп/шансон/поп удаляются. Для них есть свои порталы.

> Test Dept. - Disturbance (2019), Industrial/Experimental
post Jan 13 2020, 07:35:28
Post #1

hard sci-fi rock
**************
Group: Металариец
Posts: 2,497
Releases: 48
From: Purple sea
On Forums: 2 years 8 months
Thanks: 2614 time(s)
Unknown


(IMG:https://metalarea.org/images/audiocovers/2020_Jan/acov_tid332583_thumb.jpg)

*Artist: Test Dept.
*Album: Disturbance
*Year: 2019
*Genre: Industrial/Experimental
*Country: United Kingdom (IMG:https://metalarea.org/forum/style_images/flags/United%20Kingdom.png)
*Format: mp3@CBR320kbps
*Size: 123MB

Tracklist:
1. Speak Truth To Power 06:21
2. Landlord 04:41
3. Debris 04:33
4. Full Spectrum Dominance 07:27
5. Information Scare 04:50
6. Gatekeeper 05:32
7. Gbh84 04:21
8. Two Flames Burn 07:53
9. Speak Truth to Power (Instrumental) 06:19
******************************
Total playing time: 51:57


youtube

Technical info
(IMG:https://metalarea.org/images/spectrogram/2020_Jan/62aa85f0273bdbb4d18bcd1964a30f0c.png)
Input File: 02. Landlord.mp3
Channels : 2
Sample Rate : 44100
Precision : 16-bit
Duration : 00:04:41.88 = 12430908 samples = 21141 CDDA sectors
File Size : 11.8M
Bit Rate : 334k
Sample Encoding: MPEG audio (layer I, II or III)
Comments :
Title=Landlord
Artist=Test Dept.
Album=Disturbance
Tracknumber=2/9
Year=2019
Genre=Industrial
Discnumber=1/1



Register


Go to the top of the page
  Insert nick Quick quote
+Quote Post
 
Start new topic
Replies (1 - 3)
post Jan 20 2020, 17:30:59
Post #2

Group: Подсевший
Posts: 15
Releases: 0
On Forums: 3 years 2 months
Thanks: 4 time(s)
Russian Federation


TEST DEPT (UK) - 15.05 • СПБ // 16.05 • МСК
https://vk.com/testdept_russia2020


Thanks:
Go to the top of the page
  Insert nick Quick quote
+Quote Post
post Jan 20 2020, 18:18:34
Post #3

член общества защитников попсы
********
Group: Металариец
Posts: 807
Releases: 1
From: Полтава
On Forums: 10 years 6 days
Thanks: 468 time(s)
Ukraine


Благодарствую за подгон, заценить надобно в обязу.
Go to the top of the page
  Insert nick Quick quote
+Quote Post
post Jan 26 2020, 15:35:25
Post #4

член общества защитников попсы
********
Group: Металариец
Posts: 807
Releases: 1
From: Полтава
On Forums: 10 years 6 days
Thanks: 468 time(s)
Ukraine


Вот так тихой сапой подъехал однозначный кандидат на топ-19. Всегда говорил, что не стоит спешить с подведением итогов.


Go to the top of the page
  Insert nick Quick quote
+Quote Post

Reply to this topicStart new topic
1 User(s) are reading this topic (1 Guests and 0 Anonymous Users)
0 Members:

 



- Lo-Fi Version Support form
Copyrights and abuse reports form
Time is now: 27th September 2020 - 10:59:39